アットウィキロゴ
Duality
BEMANI Sound Team "Yvya"

EXTREME

Level: 10.8
BPM : 190
Notes(hold) : 943(34)

1
口口口口 |----|
口口口口 |----|
口口口口 |----|
口口口口 |----|
2
口口口口 |----|
口口口口 |----|
口口口口 |----|
口口口口 |----|
3
口口口① |①---|
口口口口 |②---|
口口口口 |③---|
②③④口 |④---|
4
口口口① |①---|
⑥口③口 |②-③-|
口口口口 |④---|
②④⑤口 |⑤-⑥-|
5
③口口① |①---|
口口口口 |②---|
口口口口 |③---|
②口口④ |④---|
6
口口口口 |①---|
口③①口 |②---|
口②④口 |③---|
口口口口 |④---|
7
口口口① |①---|
口口口口 |②---|
口口口口 |③---|
②③④口 |④---|
8
口口口① |①---|
⑥口③口 |②-③-|
口口口口 |④---|
②④⑤口 |⑤-⑥-|
9
口口口① |①---|
口②口口 |----|
口①口口 |②---|
口口口② |----|
10
①口口口 |①---|
口口②口 |----|
口口①口 |②---|
②口口口 |----|
11
②口口③ |①-②-|
口⑪⑨⑦ |③-④-|
⑥⑧⑩⑤ |⑤-⑥⑦|
④口⑤① |⑧⑨⑩⑪|
12
①⑥④口 |①-②-|
口口口⑦ |③-④-|
⑤口口口 |⑤-⑥-|
口②⑧③ |⑦-⑧-|
13
①⑤口④ |①-②-|
⑤⑩⑧⑥ |③-④-|
⑦⑨⑪口 |⑤-⑥⑦|
③口口② |⑧⑨⑩⑪|
14
③⑧②口 |①-②-|
口口口⑤ |③-④-|
⑦口口口 |⑤-⑥-|
口④⑥① |⑦-⑧-|
15
④口口① |①-②-|
口⑪⑨⑦ |③-④-|
⑥⑧⑩⑤ |⑤-⑥⑦|
②口⑤③ |⑧⑨⑩⑪|
16
③③①① |①-②-|
⑧口口⑥ |③-④-|
⑧口口⑥ |⑤-⑥-|
④⑤⑦② |⑦-⑧-|
17
②口⑤① |①-②-|
口①③⑥ |③-④-|
⑧③①口 |⑤-⑥-|
④⑦口③ |⑦-⑧-|
18
④⑦口口 |①-②-|
③⑨⑩⑤ |③-④-|
口⑪⑧① |⑤-⑥⑦|
口口⑥② |⑧⑨⑩⑪|
19
④口①① |①-②-|
⑥⑧⑩⑤ |③-④-|
⑤⑪⑨⑦ |⑤-⑥⑦|
②口⑤③ |⑧⑨⑩⑪|
20
④③口③ |①-②-|
口口口口 |③-④-|
口口口口
①①口②

口口⑥口
⑤口口口
口口口⑦ |⑤-⑥-|
口⑧口口 |⑦-⑧-|
21
③口口② |①-②-|
口口口③ |③-④-|
口①口口
①口口④

口⑤口口
⑦⑨⑪口
⑤⑩⑧⑥ |⑤-⑥⑦|
口口口口 |⑧⑨⑩⑪|
22
②⑧①① |①-②-|
⑥⑦口⑥ |③-④-|
⑨口⑧口 |⑤-⑥⑦|
③③⑤④ |⑧-⑨-|
23
④口①① |①-②-|
⑥⑧⑩⑤ |③-④-|
口⑪⑨⑦ |⑤-⑥⑦|
②③⑤③ |⑧⑨⑩⑪|
24
③①③① |①-②-|
⑧口口⑥ |③-④-|
⑧口口⑥ |⑤-⑥-|
④⑤⑦② |⑦-⑧-|
25
③①③① |①-②-|
⑦③①⑤ |③-④-|
⑧④②⑤ |⑤-⑥-|
④⑥⑦② |⑦-⑧-|
26
口①口① |①-②-|
口④口口 |③-④-|
口口③口
口口口②

⑤口口⑧
⑥口⑧⑦
⑦⑥口⑧ |⑤-⑥-|
⑥口口口 |⑦-⑧-|
27
口①⑤口 |①-②-|
口④⑧口 |③-④-|
口⑦③口 |⑤-⑥-|
⑥①⑤② |⑦-⑧-|
28
②①⑤⑥ |①-②-|
口③⑦口 |③-④-|
口⑧④口 |⑤-⑥-|
口①⑤口 |⑦-⑧-|
29
①口口③ |①---|
口②口② |--②-|
②口②口 |----|
①口口③ |③---|
30
⑤①口口 |--①-|
①②①⑥ |----|
⑦①③① |②-③-④-|
口④①口 |⑤-⑥-⑦-|
31
口⑤①口 |①-②-|
口⑧④口 |③-④-|
口③⑦口 |⑤-⑥-|
②⑤①⑥ |⑦-⑧-|
32
⑥⑤①② |①-②-|
口⑦③口 |③-④-|
口④⑧口 |⑤-⑥-|
口⑤①口 |⑦-⑧-|
33
⑥⑤①② |①-②-|
③口③口 |--③-|
口④口④ |④---|
⑤⑥②① |⑤-⑥-|
34
口口①① |--①-|
②口口⑤ |----|
口③⑥口 |②-③-④-|
④口①⑦ |⑤-⑥-⑦-|
35
①⑤口③ |①-②-|
⑤①口⑦ |③-④-|
⑥口口③ |⑤-⑥⑦|
口②④口
36
口⑧⑥口 |①②③④|
口④②口 |⑤-⑥-|
口①③口 |⑦-⑧-|
⑤⑤⑦⑦
37
③口口① |①-②-|
⑤口④② |③-④-|
口③⑤① |⑤---|
⑤口口口
38
③口①口 |①---|
口口口口 |②---|
②口口② |③---|
口③①口
39
口④②口 |①-②-|
③口口⑥ |③-④-|
⑦口①⑤ |⑤-⑥⑦|
③口⑤①
40
⑦⑦⑤⑤ |①②③④|
口③①口 |⑤-⑥-|
口②④口 |⑦-⑧-|
口⑥⑧口
41
口口口⑤ |①-②-|
①③②① |③-④-|
③口④① |⑤---|
③⑤口口
42
口④①口 |①-②-|
③⑥⑤② |③-④-|
⑤②⑥口 |⑤-⑥-|
④口③①
43
①⑤③③ |①-②-|
⑤口口⑦ |③-④-|
⑥口口① |⑤-⑥⑦|
口②④口
44
口⑧⑥口 |①②③④|
口④②口 |⑤-⑥-|
口①③⑦ |⑦-⑧-|
⑤⑤口⑦
45
③口口① |①-②-|
⑤口④③ |③-④-|
①②⑤口 |⑤---|
④⑤②口
46
④①①④ |①---|
口①口③ |②-③-|
④口口② |④---|
口口口口
47
口④②口 |①-②-|
①口口⑥ |③-④-|
⑦口口⑤ |⑤-⑥⑦|
③③⑤①
48
⑦口⑤⑤ |①②③④|
⑦③①口 |⑤-⑥-|
口②④口 |⑦-⑧-|
口⑥⑧口
49
口①⑤④ |①-②-|
口⑥③② |③-④-|
⑤口⑤④ |⑤-⑥-|
①口口③
50
①④口⑤ |①-②-|
②口口③ |③-④-|
口口口口 |⑤---|
口①口⑤
51
口口①口 |①---|
口口口口
口口口口
①<口口

口口口口
口口口口 |②---|
口②<口
②口口口

口口口口
口口③<
口③口口 |③---|
口口口口
52
口口口口 |①---|
①口①口
口口口①
口口口∧

②③④⑤
口⑥口口 |②③④⑤--|
口口口② |⑥-⑦-|
口口⑦口
53
口口口口 |①---|
口口口口
①口口口
①<口口

口口⑤口
口口口④ |②-③-|
口口③口 |④-⑤-|
②口口②
54
口口口口 |①---|
>①口口
口口口①
口口口口

口口口口
口②口口 |②---|
②口口口
口>②口

口③口口
口口④口
口⑤口口 |③-④-⑤-|
口口③口
55
①口口V |①---|
┃口口┃ |----|
┃口口┃ |----|
∧口口① |----|
56
口口口口 |----|
口口口口 |----|
口口口口 |----|
口口口口 |----|
57
①口①口 |①---|
口①①口 |----|
口①①口 |----|
口①口① |----|
58
口口口口 |----|
口口口口 |----|
口口口口 |----|
口口口口 |----|
59
口①<口 |①---|
①口口①
∧口口口
口①口口

口②V口
②口③口 |②-③-|
>③口口
口口口口

口口>⑤
口口④口
V④口口 |--④-|
⑤口口口 |⑤---|
60
口口口① |①-②-|
口口口V |----|
口口口②
①>②口

⑤口口口
口④⑥口
口⑦③③ |③-④-⑤-|
⑧口③口 |⑥-⑦-⑧-|
61
口口口① |①---|
口口口口 |----|
口口口口 |----|
口口口① |----|
62
口口口口 |----|
口口口口 |----|
口口口口 |----|
口口口口 |----|
63
口>①口 |①---|
①口口①
口口口∧
口口①口

口V②口
口②口② |--②-|
口口②< |----|
口口口口

③<口口
口③口口
口口③V
口口口③ |③---|
64
①口口口 |--①-|
V口口口 |----|
①口口口
口①<①

口口⑦④
口⑥③口
②②⑤口 |②-③-④-|
口②口口 |⑤-⑥-⑦-|
65
①③⑦⑤ |①-②-|
口口口口 |③-④-|
④口口⑧ |⑤-⑥-|
①⑥②⑤ |⑦-⑧-|
66
①口口⑥ |①-②-|
口口⑦② |③-④-|
④⑧⑤口 |⑤-⑥⑦|
①口③⑨ |⑧-⑨-|
67
③①②口 |①---|
①口③① |--②-|
②口③② |----|
③①②口 |③---|
68
口口③① |--①-|
②①口② |----|
口①口口 |②---|
口口③① |③---|
69
口①口口 |①-②-|
④⑥②⑧ |③-④-|
⑤③⑦⑤ |⑤-⑥-|
①口口口 |⑦-⑧-|
70
口③①④ |①-②-|
③口口口 |③-④-|
口口口口
②口口①

口口口口
口口口口
⑤⑧⑨⑩ |⑤-⑥⑦|
口⑦⑥⑪ |⑧⑨⑩⑪|
71
①口①口 |①---|
口①口口 |----|
口口口口 |----|
口口口口 |----|
72
口口口④ |----|
口口口⑤ |----|
口口口⑥ |①-②-③-|
①②③口 |④-⑤-⑥-|
73
①<口口 |①---|
口口①口
口口口口
口口口口

③口②口
口口口口 |②-③-|
③<③口 |----|
口口口③

口口口口
④<口口
④口口口
口④④口 |④---|
74
⑦③③⑥ |--①②|
①⑦②⑤ |③-④-|
口口⑧① |⑤-⑥-|
④口口口 |⑦-⑧-|
75
口口口口 |①---|
口口口口
①①口口
口口>①

口③③口
口口>③ |②-③-|
口口口口
口②口③

⑥口口口
④⑤口⑥
口口⑥< |--④⑤|
口口口口 |⑥---|
76
口③③⑤ |①-②-|
⑥⑦⑦⑥ |③-④-|
②②①口 |⑤-⑥-|
⑤⑧④⑧ |⑦-⑧-|
77
①<口口 |①---|
口口口口
口口①①
口口口口

②口②口
口口口口 |--②-|
②<口口
口口口口

口口口⑦
⑥⑤④口
⑥口口口 |③-④⑤|
口口③口 |⑥-⑦-|
78
⑤①③口 |①-②-|
口⑥⑨③ |③-④-|
口⑩⑦⑧ |⑤-⑥-⑦-|
②①④④ |⑧-⑨-⑩-|
79
④①④① |①-②-|
③⑦口⑧ |③-④-|
②口口口 |⑤-⑥-|
①⑥⑤④ |⑦-⑧-|
80
口口④⑤ |①-②-③-|
③口⑥口 |④-⑤-⑥-|
口②①⑥
口口⑤④

⑧⑦口口
口⑨口⑩
⑨⑫⑪口 |⑦-⑧-⑨-|
⑦⑧口口 |⑩-⑪-⑫-|
81
口口②⑤ |①-②-|
①⑪⑨⑦ |③-④-|
⑥⑧⑩③ |⑤-⑥⑦|
④口口⑤ |⑧⑨⑩⑪|
82
⑤口③口 |①-②-|
②⑩⑧⑥ |③-④-|
⑦⑨⑪口 |⑤-⑥⑦|
⑤①口④ |⑧⑨⑩⑪|
83
④口口① |①-②-|
②口口口 |③-④-|
口口口③
口③①口

口⑤口口
口⑦口⑥
⑦口口口 |⑤-⑥-|
⑤口⑧口 |⑦-⑧-|
84
⑥⑧①② |①-②③|
⑤⑨③⑦ |④-⑤-|
口④⑧⑤ |⑥-⑦-|
口⑥口① |⑧-⑨-|
85
⑤口②① |①-②-|
⑥⑧⑩口 |③-④-|
③⑪⑨⑦ |⑤-⑥⑦|
⑤④④① |⑧⑨⑩⑪|
86
⑤口④① |①-②-|
⑥口⑦③ |③-④-|
②⑧口⑦ |⑤-⑥-|
⑤口③① |⑦-⑧-|
87
⑤④⑤① |①-②-|
口③⑥③ |③-④-|
⑧⑦口⑦ |⑤-⑥-|
⑤①②① |⑦-⑧-|
88
⑦③⑤① |①-②-|
②④⑥④ |③-④-|
⑧⑥②⑧ |⑤-⑥-|
⑦③①⑤ |⑦-⑧-|
89
③口②① |①---|
口口口② |--②-|
③口①口 |----|
口③①② |③---|
90
口①⑤⑤ |--①-|
①③口口 |----|
③②口口 |②-③-|
①口④口 |④-⑤-|
91
①⑤⑨口 |①-②③|
⑧⑪⑥④ |④-⑤-|
口⑦⑩③ |⑥⑦⑧-|
①⑤⑨② |⑨-⑩⑪|
92
①口口② |①-②-|
③⑧⑦⑥ |----|
④口口口 |③-④-⑤-|
⑤口口② |⑥-⑦-⑧-|
93
②①③① |①---|
②口口③ |--②-|
口口②① |----|
③②③① |③---|
94
⑥①④① |--①-|
口⑦①⑤ |----|
②①口口 |②-③-④-|
口③口① |⑤-⑥-⑦-|
95
口口口口 |①-②-③-|
⑥口口口 |④-⑤-⑥-|
⑤④③口
①口①②

口⑦口口
口口⑧⑨
口口口⑩ |⑦-⑧-⑨-|
口⑫⑪口 |⑩-⑪-⑫-|
96
④⑩⑤⑨ |①②③④|
⑬③⑧口 |⑤-⑥⑦|
⑤⑦②⑩ |⑧⑨⑩-|
⑥⑫⑪① |⑪-⑫-⑬-|
97
口口口口 |①---|
口①口① |----|
>━①口 |----|
口口口① |----|
98
口口口口 |----|
口口口口 |----|
口口口口 |----|
口口口口 |----|
99
④③②① |----|
⑤口口口 |----|
⑥口口口 |----|
⑦⑧口口 |①②③④⑤⑥⑦⑧|
100
口口口口 |①---|
口口口口 |----|
口口①口 |----|
口口口口 |----|
最終更新:2019年11月28日 17:32