アットウィキロゴ
Chronos [ 2 ]
TAG

EXTREME

Level: 9.7
BPM: 128
Notes(hold): 734(46)

1
口口口口 |----|
口口口口 |----|
口口口口 |----|
口口口口
2
①②口口 |①②③④|
③④⑫⑪ |⑤⑥⑦⑧|
⑤⑥⑩⑨ |⑨⑩⑪⑫|
口口⑧⑦
3
①②口口 |①②③④|
③④⑫⑪ |⑤⑥⑦⑧|
⑤⑥⑩⑨ |⑨⑩⑪⑫|
口口⑧⑦
4
口⑤④口 |①②③④|
⑥③口口 |⑤⑥⑦-|
②⑦口口 |⑧-⑨-|
口①口口

口口口口
口口口口
⑨口口口
口口口⑧
5
⑧口⑧④ |①②③④|
⑦口⑤① |⑤⑥⑦-|
口⑥②口 |⑧---|
⑦③口口
6
⑥③口口 |①-②-|
③⑥口口 |③-④-|
⑤②④① |⑤-⑥-|
④①⑤②
7
口口③⑥ |①-②-|
口口⑥③ |③-④-|
④①⑤② |⑤-⑥-|
⑤②④①
8
口③④口 |①②③④|
②口口⑤ |⑤⑥⑦-|
⑨①⑥口 |⑧-⑨-|
口⑦口⑧
9
⑧⑧口① |①②③④|
⑦⑦②④ |⑤⑥⑦-|
口③⑤口 |⑧-⑨-|
口⑥⑨⑨
10
口口口② |①--②|
口口口口 |--③-|
①⑤④③ |④-⑤-|
∧口口口
11
口①口② |①--②|
口口口⑤ |--③-|
④口④③ |④-⑤-|
口口口口
12
①口口② |①--②|
∧口口口 |--③-|
口⑤④③ |④-⑤-|
口口口口
13
④①口② |①--②|
口③口口 |--③-|
口口④口 |④-⑤-|
口⑤口口
14
⑦口⑥口 |①②③④|
口⑤③⑧ |⑤⑥⑦-|
④②口口 |⑧-⑨⑩|
①⑩⑨口
15
口②口③ |①-②③|
④⑤口| |-④⑤-|
①口口| |⑥-⑦-|
口口口∧

⑦口口⑦
口口口口
口口口口
口⑥口口
16
口④⑨口 |①②③④|
⑤口③⑩ |⑤⑥⑦-|
⑥②口⑧ |⑧-⑨⑩|
①⑦口口
17
口口口口 |①-②③|
口口口口 |-④⑤-|
口口①口 |⑥-⑦-|
口口口口

口②口口
④⑤③口
口口|口
口口∧口

⑦口⑦口
口口⑥口
⑥口口口
⑥口口口
18
口口口⑨ |①②③④|
口⑦⑩③ |⑤⑥⑦-|
口口②⑤ |⑧-⑨⑩|
⑧①④⑥
19
⑤③口口 |①-②③|
③⑤口② |-④⑤-|
⑦①口④ |⑥⑦--|
口⑦口⑥
20
⑦③②① |①②③④|
⑧⑥⑤④ |⑤⑥⑦⑧|
⑨⑫⑪⑩ |⑨⑩⑪⑫|
口口口口
21
⑥②①⑤ |①②③④|
口④③⑦ |⑤⑥⑦-|
口口口口 |----|
口口口口
22
口①口口 |--①-|
口∧口口 |②---|
口口口口 |③-④-|
口口口口

口②口口
口口口口
口∨口口
口③口②

口口口④
口口口口
口口口口
口④口口
23
口①口口 |--①-|
口∧口口 |②-③④|
口口口口 |⑤⑥--|
口口口口

口②口口
口口口⑤
③④口⑥
口口口②
24
口口①口 |①-②-|
口口∧口 |--③-|
口口口口 |④---|
口口口口

口口②口
口口口口
口口∨口
②口③口

④口口口
口口口口
口口口口
口口④口
25
口口①口 |①-②-|
口口∧口 |③④⑤⑥|
口口口口 |--⑦-|
口口口口

⑥口②口
⑤口口口
口口④③
②口口口

口⑦口口
口∧口口
口口口口
口口口口
26
口①口口 |①---|
口口口口 |②-③-|
口∨口口 |--④-|
口②口①

口口口③
口口口口
口口口口
口③口口

④口口口
∧口口口
口口口口
口口口口
27
①口口口 |①-②③|
口口口口 |④⑤⑥⑦|
口口口口 |⑧---|
口口①口

口③②口
⑤口口④
口⑦⑥口
――⑧
28
口③口② |--①-|
①口④口 |②--③④⑤|
口⑤口口 |⑥--⑦|
―⑥①

口口口口
口口口口
⑦口口口
口口口口
29
④口口口 |-①②-|
①②口⑥ |③-④⑤|
口④⑤| |⑥--⑦|
③口③∧

口口口口
口口口口
⑦口口口
口口口口
30
口口⑦口 |-①②③|
①②⑤② |④⑤⑥⑦|
口⑥口口 |-⑧-⑨|
口④③口

⑧口口口
口口口⑨
口口口⑧
⑨口口口
31
口口⑦② |-①②③|
①⑥③⑧ |④⑤⑥⑦|
⑤④口口 |⑧-⑨⑩|
口⑨⑩①
32
④口口⑤ |①②③-|
⑥口②口 |④-⑤-|
口③口① |⑥-⑦⑧|
⑤⑧⑦④
33
⑤口口④ |①②③-|
口②口口 |④-⑤-|
①口③口 |⑥⑦⑧⑨|
④口口⑤

口口⑧口
口口口⑥
⑦口口口
口⑨口口
34
口口⑪⑦ |①②③④|
②⑥③⑨ |⑤⑥⑦⑧|
⑩④⑤① |⑨⑩⑪⑫|
⑧⑫口口
35
⑧口口⑦ |①②③④|
②⑥③⑨ |⑤⑥⑦⑧|
口④⑤① |⑨-⑩⑪|
口⑩⑪口
36
④口口⑤ |①②③-|
⑥口②⑦ |④-⑤-|
口③口① |⑥⑦⑧⑨|
⑤⑨⑧④
37
⑤口口④ |①②③-|
口②口口 |④-⑤-|
①口③口 |⑥⑦⑧⑨|
④口口⑤

口口⑧口
口口口⑥
⑦口口口
口⑨口口
38
口口⑪⑦ |①②③④|
②⑥③⑨ |⑤⑥⑦⑧|
⑩④⑤① |⑨⑩⑪⑫|
⑧⑫口口
35
⑧⑩⑩⑦ |①②③④|
②⑥③口 |⑤⑥⑦⑧|
口④⑤① |⑨-⑩-|
――⑨
40
口口口口 |①②③-|
④④口⑤ |④-⑤-|
①②③口 |⑥-⑦-|
口⑥⑥④

口口口口
口口口口
口口口口
⑦――<
41
口①①口 |①-②③|
⑥口⑤⑤ |④-⑤-|
口④③② |⑥-⑦-|
⑤⑦⑦口
42
口②②口 |①-②-|
口口口口 |③④⑤-|
③④⑤口 |⑥-⑦-|
――①

口口口口
⑥⑥口⑦
口口口口
口口口⑥
43
①口口② |①-②-|
⑧⑥⑤口 |③④-⑤|
④④③口 |⑥-⑦⑧|
⑥⑧⑦口
44
口③③口 |-①②-|
⑦⑦口口 |③-④⑤|
④⑤⑥① |⑥-⑦-|
――②

口口口口
口口口口
口口口口
口口口⑦
45
口口口口 |①-②-|
口口口① |③-④-|
口口口口 |⑤⑥⑦-|
口②②口

口④④口
口口口口
口⑦⑥⑤
③――<
46
口口口口 |①-②-|
②口①① |③-④-|
口口口口 |⑤-⑥⑦|
①③③口

口⑤⑤口
口口口口
⑥⑦口口
――④
47
④口口⑤ |①-②-|
②②口③ |③-④-|
口口①口 |⑤-⑥⑦|
口口口②

口口口口
口口口口
⑦⑦⑥口
口口口口
48
口⑦⑥⑤ |-①②-|
④④③口 |③④--|
⑧口口口 |⑤⑥⑦⑧|
②②①口
49
口口口口 |①②③④|
⑥⑦⑧口 |⑤⑥⑦⑧|
∨①②口 |⑨--⑩|
⑨⑤④③

口口口口
口口口口
口口口⑩
⑩口口口
50
口①②< |-①②-|
口口口口 |③-④-|
口口口口 |⑤-⑥-|
口口口口

口口③口
③<口口
口口口口
口口口口

口口口口
④口口口
口>④口
口口口口

口口口口
口口口口
口口⑤口
⑤<口口

口口口口
口口>⑥
口口口口
⑥口口口
51
口口口口 |①-②-|
口口口① |③-④-|
口①―< |⑤--⑥|
口口口口

口口口口
口口口口
口②口口
口>―②

口口口口
③―<口
口口口口
口口口③

―④口
④口口口
口口口口
口口口口

口口⑤口
口口口口
⑤―<口
口口口口

口口口口
口口口口
⑥口口⑥
口口口口
52
③口口口 |-①②-|
口①②口 |③-④⑤|
口口口口 |⑥⑦⑧⑨|
口口口口

口口口口
⑧⑨口⑥
口⑤④⑦
口口口口
53
⑥<口口 |①②③-|
口口口口 |--④⑤|
⑤口④口 |⑥--⑦|
③口②①

⑦口口口
口口口口
口口口口
口口>⑦
54
口口口口 |-①②-|
①②<口 |⑤-③④|
口口口口 |⑤--⑥|
口口口①

⑤<口口
口③口口
④口③口
口口口口

⑥口口⑥
口口口∧
口口口口
口口口口
55
口⑤④① |-①②-|
③⑤②口 |③-④-|
口①⑤口 |⑤---|
口口⑤口
56
③④口口 |--①②|
口口②① |③④⑤⑥|
口口⑥⑤ |⑦⑧⑨⑩|
口口口口

口口口⑧
⑦⑦口⑩
⑨⑨口口
口口口口
57
口口③口 |①②③-|
口口③口 |----|
口口③② |④---|
①①口口

口④口口
口口口④
④口口口
口口④口
58
口口口口 |----|
口口口口 |----|
口口口口 |----|
口口口口
59
口口口口 |----|
口口口口 |----|
口口口口 |----|
口口口口
60
口口口口 |----|
口口口口 |----|
口口口口 |----|
口口口口
61
口口口① |----|
口①口口 |----|
口口①口 |①---|
①口口口
62
①②口口 |--①-|
②口①口 |----|
口①口② |②---|
口口②①
63
②口①口 |--①-|
口口③① |----|
①③口口 |②-③-|
口①口②
64
⑤④①② |①-②-|
①③⑥④ |③-④-|
④⑥③① |⑤-⑥-|
②①④⑤
65
⑦口①口 |①-②③|
①⑤口⑥ |④⑤⑥⑦|
口口②① |⑧-⑨-|
③①④口

口⑨⑨口
口口口口
口口口口
――⑧
66
口口口口 |①②③-|
④④口⑤ |④-⑤-|
①②③口 |⑥-⑦-|
口⑥⑥④

口口口口
口口口口
口口口口
⑦――<
67
口①①口 |①-②③|
⑥口⑤⑤ |④-⑤-|
口④③② |⑥-⑦-|
⑤⑦⑦口
68
口②②口 |①-②-|
口口口口 |③④⑤-|
③④⑤口 |⑥-⑦-|
――①

口口口口
⑥⑥口⑦
口口口口
口口口⑥
69
①口口② |①-②-|
⑧⑥⑤口 |③④-⑤|
④④③口 |⑥-⑦⑧|
⑥⑧⑦口
70
口③③口 |-①②-|
⑦⑦口口 |③-④⑤|
④⑤⑥① |⑥-⑦-|
――②

口口口口
口口口口
口口口口
口口口⑦
71
口口口口 |①-②-|
口口口① |③-④-|
口口口口 |⑤⑥⑦-|
口②②口

口④④口
口口口口
口⑦⑥⑤
③――<
72
口口口口 |①-②-|
②口①① |③-④-|
口口口口 |⑤-⑥⑦|
①③③口

口⑤⑤口
口口口口
⑥⑦口口
――④
73
④口口⑤ |①-②-|
②②口③ |③-④-|
口口①口 |⑤-⑥⑦|
口口口②

口口口口
口口口口
⑦⑦⑥口
口口口口
74
口⑦⑥⑤ |-①②-|
④④③口 |③④--|
⑧口口口 |⑤⑥⑦⑧|
②②①口
75
⑩⑪口⑨ |①②③④|
⑥⑦⑧⑨ |⑤⑥⑦⑧|
口①②口 |⑨⑩⑪⑫|
口⑤④③

口口口口
口口口口
口口口⑫
口口口⑫
76
口口⑥口 |①②③④|
④⑤⑥口 |⑤⑥⑦⑧|
⑦⑧③口 |⑨⑩⑪⑫|
①②③口

⑫口口⑨
口口口口
口口口口
⑩口口⑪
77
口⑨③口 |①②③④|
⑨⑨⑦① |⑤⑥⑦⑧|
④⑧口⑤ |⑨---|
口②⑥口
78
①口口② |----|
口口口口 |----|
①口口② |-①-②|
②口口①
79
口∨∨∨ |----|
口①①① |-①--|
口口①口 |----|
口口①口
80
口口口口 |----|
口①①① |----|
口口口口 |①---|
口口口口
最終更新:2019年11月08日 01:59