アットウィキロゴ
シンクロフィッシュ
Blanc Bunny Bandit

BASIC

Level: 2
BPM: 182
Notes: 194

1
口口口口 |----|
口口口口 |----|
口口口口 |----|
口口口口 |----|
2
口口口口 |----|
口口口口 |----|
口口口口 |----|
口口口口 |----|
3
口口口口 |①---|
口口口口 |----|
口口口口 |----|
口口口① |----|
4
口口口口 |①---|
口口口口 |----|
口口口① |----|
口口口口 |----|
5
口口口口 |①---|
口口口① |----|
口口口口 |----|
口口口口 |----|
6
口口口① |①---|
口口口口 |----|
口口口口 |----|
口口口口 |----|
7
①口口口 |①---|
口口口口 |----|
口口口口 |----|
口口口口 |----|
8
口口口口 |①---|
①口口口 |----|
口口口口 |----|
口口口口 |----|
9
口口口口 |①---|
口口口口 |----|
①口口口 |----|
口口口口 |----|
10
口口口口 |①---|
口口口口 |----|
口口口口 |----|
①口口口 |----|
11
口口口口 |①---|
口口口口 |----|
口口口口 |----|
口①①口 |----|
12
口口口口 |----|
口口口口 |----|
口口口口 |----|
口口口口 |----|
13
口口口口 |①---|
口口口口 |----|
口①①口 |----|
口口口口 |----|
14
口口口口 |----|
口口口口 |----|
口口口口 |----|
口口口口 |----|
15
口口口口 |①---|
口①①口 |----|
口口口口 |----|
口口口口 |----|
16
口口口口 |----|
口口口口 |----|
口口口口 |----|
口口口口 |----|
17
①口口① |①---|
口口口口 |----|
口口口口 |----|
口口口口 |----|
18
口①①口 |①---|
口口口口 |----|
口口口口 |----|
口口口口 |----|
19
①口口① |①---|
口口口口 |----|
口口口口 |----|
口口口口 |----|
20
口口口口 |----|
口口口口 |----|
口口口口 |----|
口口口口 |----|
21
口口口口 |①---|
①口口① |----|
口口口口 |----|
口口口口 |----|
22
口口口口 |----|
口口口口 |----|
口口口口 |----|
口口口口 |----|
23
口口口口 |①---|
口口口口 |----|
①口口① |----|
口口口口 |----|
24
口口口口 |----|
口口口口 |----|
口口口口 |----|
口口口口 |----|
25
口口口口 |①---|
口口口口 |----|
口口口口 |----|
口①①口 |----|
26
口口口口 |①---|
口口口口 |----|
口口口口 |----|
①口口① |----|
27
口口口口 |①---|
口口口口 |②---|
口③②① |③---|
口口口口 |----|
28
口口口口 |①---|
①②③口 |②---|
口口口口 |③---|
口口口口 |----|
29
口①①口 |①---|
口②②口 |----|
口口口口 |②---|
口口口口 |----|
30
口口口口 |①---|
口口口口 |----|
口①①口 |②---|
口②②口 |----|
31
口口口口 |①---|
口口口口 |②---|
①②③口 |③---|
口口口口 |----|
32
口口口口 |①---|
口③②① |②---|
口口口口 |③---|
口口口口 |----|
33
①口口① |①---|
口口口口 |----|
口口口口 |----|
口口口口 |----|
34
口口口口 |①---|
口口口口 |----|
口①①口 |②---|
口②②口 |----|
35
口口口口 |①---|
口口口口 |②---|
口③②① |③---|
口口口口 |----|
36
口口口口 |①---|
①②③口 |②---|
口口口口 |③---|
口口口口 |----|
37
口①①口 |①---|
口②②口 |----|
口口口口 |②---|
口口口口 |----|
38
口口口口 |①---|
口口口口 |----|
口①①口 |②---|
口②②口 |----|
39
口口口口 |①---|
口口口口 |②---|
①②③口 |③---|
口口口口 |----|
40
口口口口 |①---|
口③②① |②---|
口口口口 |③---|
口口口口 |----|
41
①口口① |①---|
口口②口 |----|
口口口口 |----|
口口口口 |--②-|
42
口口口口 |--①-|
口口口口 |--②-|
口①口口 |----|
口口②口 |----|
43
①①口口 |①---|
口口口口 |----|
口口口口 |----|
口口口口 |----|
44
口口①① |①---|
口口口口 |----|
口口口口 |----|
口口口口 |----|
45
口口口口 |①---|
①①口口 |----|
口口口口 |----|
口口口口 |----|
46
口口口口 |①---|
口口①① |----|
口口口口 |----|
口口口口 |----|
47
口口口口 |①---|
口口口口 |----|
①①口口 |----|
口口口口 |----|
48
口口口口 |①---|
口口口口 |----|
口口①① |----|
口口口口 |----|
49
口口口口 |①---|
口口口口 |----|
口口口口 |----|
①①口口 |----|
50
口口口口 |①---|
口口口口 |----|
口口口口 |----|
口口①① |----|
51
口口口口 |①---|
口口口口 |----|
口①①口 |----|
口口口口 |----|
52
口口口口 |----|
口口口口 |----|
口口口口 |----|
口口口口 |----|
53
口口口口 |----|
口口口口 |----|
口口口口 |----|
口口口口 |----|
54
口口口口 |----|
口口口口 |----|
口口口口 |----|
口口口口 |----|
55
①口口① |①---|
②口口② |----|
口口口口 |②---|
口口口口 |----|
56
口口口口 |①---|
口口口口 |----|
①口口① |②---|
②口口② |----|
57
口口口口 |①---|
口口口口 |----|
口①①口 |----|
口口口口 |----|
58
口口口口 |----|
口口口口 |----|
口口口口 |----|
口口口口 |----|
59
口口口口 |①---|
口口口口 |②---|
④③②① |③---|
口口口口 |④---|
60
口口口口 |①---|
①②③④ |②---|
口口口口 |③---|
口口口口 |④---|
61
口①①口 |①---|
口②②口 |----|
口口口口 |②---|
口口口口 |----|
62
口口口口 |①---|
口口口口 |----|
口①①口 |②---|
口②②口 |----|
63
口口口口 |①---|
口口口口 |②---|
①②③④ |③---|
口口口口 |④---|
64
口口口口 |①---|
④③②① |②---|
口口口口 |③---|
口口口口 |④---|
65
①口口① |①---|
口口口口 |----|
口口口口 |----|
口口口口 |----|
66
口口口口 |①---|
口口口口 |----|
口①①口 |②---|
口②②口 |----|
67
口口口口 |①---|
口口口口 |②---|
④③②① |③---|
口口口口 |④---|
68
口口口口 |①---|
①②③④ |②---|
口口口口 |③---|
口口口口 |④---|
69
口①①口 |①---|
口②②口 |----|
口口口口 |②---|
口口口口 |----|
70
口口口口 |①---|
口口口口 |----|
口①①口 |②---|
口②②口 |----|
71
口口口口 |①---|
口口口口 |②---|
①②③④ |③---|
口口口口 |④---|
72
口口口口 |①---|
④③②① |②---|
口口口口 |③---|
口口口口 |④---|
73
①口口① |①---|
口口②口 |----|
口口口口 |----|
口口口口 |--②-|
74
口口口口 |--①-|
口口口口 |--②-|
口①口口 |----|
口口②口 |----|
75
口口口① |①---|
口口口口 |----|
口口口口 |----|
口口口口 |----|
76
口口口口 |①---|
口口口① |----|
口口口口 |----|
口口口口 |----|
77
口口口口 |①---|
口口口口 |----|
口口口① |----|
口口口口 |----|
78
口口口口 |①---|
口口口口 |----|
口口口口 |----|
口口口① |----|
79
口口口口 |①---|
口口口口 |----|
口口口口 |----|
①口口口 |----|
80
口口口口 |①---|
口口口口 |----|
①口口口 |----|
口口口口 |----|
81
口口口口 |①---|
①口口口 |----|
口口口口 |----|
口口口口 |----|
82
①口口口 |①---|
口口口口 |----|
口口口口 |----|
口口口口 |----|
83
口口②① |①---|
口口口口 |----|
口口口口 |②---|
口口口口 |----|
84
口口口口 |①---|
口口②① |----|
口口口口 |②---|
口口口口 |----|
85
口口口口 |①---|
口口口口 |----|
口口②① |②---|
口口口口 |----|
86
口口口口 |①---|
口口口口 |----|
口口口口 |②---|
口口②① |----|
87
口口口口 |①---|
口口口口 |----|
口口口口 |②---|
①②口口 |----|
88
口口口口 |①---|
口口口口 |----|
①②口口 |②---|
口口口口 |----|
89
口口口口 |①---|
口①①口 |----|
口口口口 |②---|
口②②口 |----|
90
口①①口 |①---|
口口口口 |----|
口②②口 |②---|
口口口口 |----|

accuracy: 99.5%
最終更新:2023年01月17日 11:31