アットウィキロゴ
シンクロフィッシュ
Blanc Bunny Bandit

ADVANCED

Level: 5
BPM: 182
Notes: 402

1
口口口口 |----|
口口口口 |----|
口口口口 |----|
口口口口 |----|
2
口口口口 |----|
口口口口 |----|
口口口口 |----|
口口口口 |----|
3
②口④口 |①---|
①③口口 |--②-|
口口口口 |--③-|
口口口口 |--④-|
4
口口口口 |----|
口口口口 |----|
口口口口 |----|
口口口口 |----|
5
口④口② |①---|
口口③① |--②-|
口口口口 |--③-|
口口口口 |--④-|
6
口口口口 |----|
口口口口 |----|
口口口口 |----|
口口口口 |----|
7
口口口口 |①---|
②口④口 |--②-|
①③口口 |--③-|
口口口口 |--④-|
8
口口口口 |----|
口口口口 |----|
口口口口 |----|
口口口口 |----|
9
口口口口 |①---|
口④口② |--②-|
口口③① |--③-|
口口口口 |--④-|
10
口口口口 |----|
口口口口 |----|
口口口口 |----|
口口口口 |----|
11
口口口口 |----|
口口口口 |----|
口口口口 |----|
口口①口 |--①-|
12
口口口口 |----|
口口口口 |①---|
口②①口 |②---|
口③口口 |③---|
13
口口口口 |----|
口口口口 |----|
口①口口 |----|
口口口口 |--①-|
14
口口口口 |----|
口①②口 |①---|
口口③口 |②---|
口口口口 |③---|
15
口口口口 |----|
口口①口 |----|
口口口口 |----|
口口口口 |--①-|
16
口③②口 |----|
口①口口 |①---|
口口口口 |②---|
口口口口 |③---|
17
口口口口 |①---|
③口口① |--②-|
②口口口 |----|
口口口口 |③---|
18
③口口③ |----|
口②②口 |①---|
口口口① |②---|
口口口口 |③---|
19
口口口口 |①---|
②口口② |--②-|
口口口口 |----|
①口③① |--③-|
20
口口口口 |----|
口口口口 |①---|
口②①口 |②---|
口③口口 |③---|
21
③口口③ |①---|
②口口② |--②-|
口④口口 |--③-|
①口口① |--④-|
22
口口口口 |----|
口①②口 |①---|
口口③口 |②---|
口口口口 |③---|
23
③口口③ |①---|
②口④② |--②-|
口口口口 |--③-|
①口口① |--④-|
24
口③②口 |----|
口①口口 |①---|
口口口口 |②---|
口口口口 |③---|
25
③口口① |①---|
③口口① |--②-|
②口口口 |----|
口口口口 |③---|
26
口②②口 |----|
口口口口 |①---|
口③③① |②---|
口口口口 |③---|
27
①口口① |①---|
口③②口 |----|
口口口口 |----|
口口口口 |②-③-|
28
口口口口 |----|
口口口口 |----|
口口口口 |----|
口①①口 |①---|
29
④口口③ |①---|
①④③① |②---|
口②②口 |③---|
口口口口 |④---|
30
口口口口 |----|
口口口口 |----|
口口口口 |----|
①口口① |①---|
31
④①①④ |①---|
①③③① |②---|
口②②口 |③---|
口口口口 |④---|
32
口口口口 |----|
口口口① |----|
口口①口 |①---|
口口口口 |----|
33
口口口口 |①---|
①口口口 |----|
口①口口 |----|
口口口口 |----|
34
口口口口 |①---|
③②①③ |②---|
口①②口 |③---|
口④④口 |④---|
35
①口口① |①---|
口③②口 |----|
口口口口 |----|
口口口口 |②-③-|
36
口口口口 |----|
口口口口 |----|
口口口口 |----|
口①①口 |①---|
37
④口口③ |①---|
①④③① |②---|
口②②口 |③---|
口口口口 |④---|
38
口口口口 |----|
口口口口 |----|
口口口口 |----|
①口口① |①---|
39
④①①④ |①---|
①③③① |②---|
口②②口 |③---|
口口口口 |④---|
40
口口口口 |----|
口口口① |----|
口口①口 |①---|
口口口口 |----|
41
口口口口 |①---|
①口口口 |----|
口①口口 |----|
口③③② |②-③-|
42
口口口口 |--①-|
口②②口 |--②-|
①③口① |--③-|
口口口口 |----|
43
②②①① |①---|
④⑥⑤③ |②---|
口口口口 |③-④-|
口口口口 |⑤-⑥-|
44
口口口口 |①---|
口口口口 |②---|
④⑥⑤③ |③-④-|
②②①① |⑤-⑥-|
45
②④③① |①---|
②⑥⑤① |②---|
口口口口 |③-④-|
口口口口 |⑤-⑥-|
46
④口口③ |①-②-|
口口口口 |--③-|
口②①⑤ |--④-|
口口口⑤ |--⑤-|
47
④①②② |①---|
④①口口 |②-③-|
③③⑤口 |--④-|
口口⑤口 |⑤---|
48
⑤④③口 |①-②-|
口口②② |--③-|
口口口口 |--④-|
①①口口 |--⑤-|
49
口口口① |①-②-|
②口③⑤ |③-④-|
⑥④⑦口 |⑤-⑥-|
口⑧口口 |⑦-⑧-|
50
口①①口 |①---|
口口口口 |--②-|
口口口口 |--③-|
③口口② |----|
51
口口口口 |①---|
口①①口 |----|
口①①口 |----|
口口口口 |----|
52
口口口口 |----|
口口口口 |----|
口口口口 |----|
口口口口 |----|
53
口口口口 |①---|
口口口口 |②---|
口口口口 |③---|
④③②① |④---|
54
口口口口 |①---|
口口口④ |②---|
①②③④ |③---|
口口口口 |④---|
55
④③②① |①---|
口口②口 |②---|
口口⑤口 |③---|
口口口口 |④-⑤-|
56
口口口口 |①---|
①②③④ |②---|
口口口④ |③---|
口口口口 |④---|
57
口口口⑤ |①---|
口口口口 |②---|
口口②口 |③---|
④③②① |④-⑤-|
58
口口口口 |----|
口口口口 |----|
口口口口 |----|
口口口口 |----|
59
口③②口 |----|
①①①① |①---|
①①①① |----|
口口口口 |②-③-|
60
口口口口 |----|
口口口口 |----|
口口口口 |----|
口①①口 |①---|
61
④口口③ |①---|
①④③① |②---|
口②②口 |③---|
口口口口 |④---|
62
口口口口 |----|
口口口口 |----|
口口口口 |----|
①口口① |①---|
63
④①①④ |①---|
①③③① |②---|
口②②口 |③---|
口口口口 |④---|
64
口口口口 |----|
口口口① |----|
口口①口 |①---|
口口口口 |----|
65
口口口口 |①---|
①口口口 |----|
口①口口 |----|
口口口口 |----|
66
口口口口 |①---|
③①②③ |②---|
口②①口 |③---|
口④④口 |④---|
67
①①①① |①---|
口③②口 |----|
口口口口 |----|
口口口口 |②-③-|
68
口口口口 |----|
口口口口 |----|
口口口口 |----|
口①①口 |①---|
69
④口口③ |①---|
①④③① |②---|
口②②口 |③---|
口口口口 |④---|
70
口口口口 |----|
口口口口 |----|
口口口口 |----|
①口口① |①---|
71
④①①④ |①---|
①③③① |②---|
口②②口 |③---|
口口口口 |④---|
72
口口口口 |----|
口口口① |----|
口口①口 |①---|
口口口口 |----|
73
口口口口 |①---|
①口口口 |----|
口①口口 |----|
口③③② |②-③-|
74
口口口口 |--①-|
口②②口 |--②-|
①③口① |--③-|
口口口口 |----|
75
③口⑤② |①---|
①④口② |②-③-|
口口口口 |--④-|
口口口口 |--⑤-|
76
口口口口 |----|
口口口口 |----|
口口口口 |----|
口口口口 |----|
77
②⑤口③ |①---|
②口④① |②-③-|
口口口口 |--④-|
口口口口 |--⑤-|
78
口口口口 |----|
口口口口 |----|
口口口口 |----|
口口口口 |----|
79
口口口口 |①---|
③口⑤② |②-③-|
①④口② |--④-|
口口口口 |--⑤-|
80
口口口口 |----|
口口口口 |----|
口口口口 |----|
口口口口 |----|
81
口口口口 |①---|
②⑤口③ |②-③-|
②口④① |--④-|
口口口口 |--⑤-|
82
口口口口 |----|
口口口口 |----|
口口口口 |----|
口口口口 |----|
83
③口⑤② |①---|
①④口② |②-③-|
①口口口 |--④-|
口口口口 |--⑤-|
84
口口口口 |----|
口②①口 |----|
口口口口 |--①-|
口口口口 |②---|
85
②⑤口③ |①---|
②口④① |②-③-|
口口口① |--④-|
口口口口 |--⑤-|
86
②②①① |----|
口口口口 |----|
口口口口 |--①-|
口口口口 |--②-|
87
口口口口 |①---|
③口⑤② |②-③-|
①④口② |--④-|
①口口口 |--⑤-|
88
口口口口 |----|
口口口口 |----|
口口口口 |----|
口口口口 |----|
89
口口⑤⑤ |①---②-|
④②①③ |--③---|
④②①③ |④---⑤-|
⑥⑥口口 |--⑥---|
90
②②⑤⑤ |①---②-|
④④⑤⑤ |--③---|
⑥⑥③③ |④---⑤-|
⑥⑥①① |--⑥---|

accuracy: 99.5%
最終更新:2023年01月17日 11:32