アットウィキロゴ
シンクロフィッシュ
Blanc Bunny Bandit

EXTREME

Level: 8
BPM: 182
Notes: 666

1
口口口口 |----|
口口口口 |----|
口口口口 |----|
口口口口 |----|
2
口口口口 |----|
口口口口 |----|
口口口口 |----|
口口口口 |----|
3
口⑥④口 |①-②-|
⑥口口④ |③-④-|
口口⑤口 |----|
③②①口 |⑤-⑥-|
4
口口口口 |----|
口①①口 |----|
口口口口 |①---|
口口口口 |----|
5
④口口① |①---|
口③②口 |--②-|
口④①口 |--③-|
③口口② |--④-|
6
口口口口 |----|
①口口① |----|
口口口口 |①---|
口口口口 |----|
7
④口②口 |①---|
口③口口 |--②-|
④口②口 |--③-|
①③①口 |--④-|
8
口口口口 |----|
口①②③ |----|
口口口口 |--①-|
口口口口 |②-③-|
9
②口口② |①---|
口口口口 |②-③-|
③口口口
口①①口

口口④口
⑤口口口
口口口④ |--④-|
口⑤口口 |--⑤-|
10
③⑤口口 |①-②-|
口②口④ |③-④-|
⑤口①口 |--⑤-|
口口④口 |----|
11
②口④② |①---|
口①①口 |--②-|
口口口口 |--③-|
③口口③ |--④-|
12
口口口口 |----|
口口口口 |①---|
①②③口 |②---|
口口口口 |③---|
13
②①①② |①---|
口口①口 |--②-|
口口口口
口口口口

口④口口
口口口口
口口口口 |--③-|
③口口③ |--④-|
14
口口口口 |----|
口口口口 |①---|
口③②① |②---|
口口口口 |③---|
15
②①①② |①---|
口①①口 |--②-|
口口口口
口口口口

口④④口
口口口口
口口口口 |--③-|
③口口③ |--④-|
16
口口口口 |----|
①口①口 |①---|
口②口② |②---|
③口③口 |③---|
17
②口口① |①---|
②口口① |--②-|
口口口③ |----|
口口口③ |③---|
18
口③②口 |----|
口口口口 |①---|
①②口口 |②---|
①口③口 |③---|
19
②④④② |①---|
口①①口 |--②-|
口口口口 |--③-|
③口口③ |--④-|
20
口口口口 |----|
口口口口 |①---|
①②③口 |②---|
口①②③ |③---|
21
②①①② |①---|
口①①口 |--②-|
口口口口
口口口口

口④④口
口口口口
口口口口 |--③-|
③口口③ |--④-|
22
口口口口 |----|
口口口口 |①---|
口③②① |②---|
③②①口 |③---|
23
②①①② |①---|
口①①口 |--②-|
口口口口
口口口口

口④④口
口口口口
口④④口 |--③-|
③口口③ |--④-|
24
③口口③ |----|
②口口② |①---|
口口口口 |②---|
口①①口 |③---|
25
口②口口 |①---|
②口口口 |--②-|
口③①口 |----|
③口口① |③---|
26
口口①口 |----|
口口口① |①---|
口③③口 |②---|
口②②口 |③---|
27
①①口③ |①---|
口口口口 |----|
口口②③ |----|
口口②口 |②-③-|
28
口口口口 |----|
①口口口 |①---|
②口③口 |②---|
口④口口 |③-④-|
29
③①③① |①---|
口口口口 |②---|
口口口⑤ |③---|
②④②④ |④-⑤-|
30
口①口① |----|
①②①口 |①---|
口③口口 |②---|
口口口口 |③---|
31
①③①③ |①---|
口口口口 |②---|
口口口⑤ |③---|
②④②④ |④-⑤-|
32
①口①口 |----|
口①②① |①---|
口口③口 |②---|
口口口口 |③---|
33
④口口④ |①---|
③口口口 |②---|
②口口口 |③---|
①口口口 |④---|
34
口④③口 |①---|
④口口② |②---|
③口口① |③---|
口②①口 |④---|
35
⑤口③口 |①---|
口口口口 |②---|
⑤④②口 |③---|
①④口① |④-⑤-|
36
口口口口 |----|
口口口① |①---|
口③口② |②---|
口口④口 |③-④-|
37
①③①③ |①---|
口口口口 |②---|
⑤口口口 |③---|
④②④② |④-⑤-|
38
①口①口 |----|
口①②① |①---|
口口③口 |②---|
口口口口 |③---|
39
③①③① |①---|
口口口口 |②---|
⑤口口口 |③---|
④②④② |④-⑤-|
40
口①口① |----|
①②①口 |①---|
口③口口 |②---|
口口口口 |③---|
41
⑤⑤⑤⑤ |①---|
③口口③ |②---|
②口④② |③---|
口①①口 |④-⑤-|
42
口口口口 |--①-|
②②②② |--②-|
口③口口 |--③-|
①①①① |----|
43
口①③① |①---|
口②④② |②---|
口口口③ |③---|
口口口④ |④---|
44
口口口④ |①-②-|
口口口口 |③-④-|
口①②口
口③①口

口口口口
口口⑥口
⑦⑧口口 |⑤-⑥-|
⑤口口口 |⑦-⑧-|
45
②③⑤口 |①---|
①④③② |②---|
口⑥⑤口 |③-④-|
口口口① |⑤-⑥-|
46
②口口① |①-②-|
①⑥口③ |③-④-|
口口⑧⑤ |⑤-⑥-|
④口口⑦ |⑦-⑧-|
47
口口②③ |①---|
口口⑤④ |②-③-|
⑥①口口 |④-⑤-|
④②①口 |⑥---|
48
②④⑤口 |①---|
①①口口 |②-③-|
口③①口 |④---|
口⑤③口 |⑤---|
49
③④口① |①---|
②④①② |②---|
①③②③ |③---|
口口口④ |④---|
50
口口口① |①-②-|
③口②口 |③-④-|
口④口口 |----|
口⑤⑤口 |⑤---|
51
①口口① |①---|
口口口口 |----|
口口口口 |----|
口口口口 |----|
52
口口口口 |----|
口口口口 |----|
口口口口 |----|
口口口口 |----|
53
口口口④ |①---|
口口口③ |②---|
口口口② |③---|
口口口① |④---|
54
④口口④ |①---|
③口口口 |②---|
②④④口 |③---|
①口口口 |④---|
55
口口口④ |①---|
口②②③ |②---|
②口口② |③---|
口⑤⑤① |④-⑤-|
56
④口口④ |①---|
③④④口 |②---|
②②②② |③---|
①口口口 |④---|
57
口②②⑤ |①---|
口口口⑤ |②---|
口口③口 |③-④-|
①④口① |--⑤-|
58
口口口口 |----|
口口口口 |----|
口口口口 |----|
口口口口 |----|
59
①②②④ |①---|
口②口② |②---|
②②③④ |----|
②②③① |③-④-|
60
①口口口 |--①-|
②口②口 |②---|
③④④口 |③---|
口⑤口口 |④-⑤-|
61
③①③① |①---|
口口口口 |②---|
口⑤口⑤ |③---|
②④②④ |④-⑤-|
62
口①口① |----|
①②①口 |①---|
口③③口 |②---|
口口口口 |③---|
63
①③①③ |①---|
口口口口 |②---|
口⑤口⑤ |③---|
②④②④ |④-⑤-|
64
①口①口 |----|
口①②① |①---|
口③③口 |②---|
口口口口 |③---|
65
④口②④ |①---|
③口口口 |②---|
②口口口 |③---|
①口①③ |④---|
66
口④③口 |①---|
④③口② |②---|
③口②① |③---|
口②①口 |④---|
67
⑤口③口 |①---|
口③口口 |②---|
⑤④②口 |③---|
①④口① |④-⑤-|
68
口口口① |--①-|
口口②② |②---|
口④④③ |③---|
口口⑤口 |④-⑤-|
69
①③①③ |①---|
口口口口 |②---|
⑤口⑤口 |③---|
④②④② |④-⑤-|
70
①口①口 |----|
口①②① |①---|
口③③口 |②---|
口口口口 |③---|
71
③①③① |①---|
口口口口 |②---|
⑤口⑤口 |③---|
④②④② |④-⑤-|
72
口①口① |----|
①②①口 |①---|
口③③口 |②---|
口口口口 |③---|
73
⑤⑤⑤⑤ |①---|
③④口③ |②---|
②口④② |③---|
①①①① |④-⑤-|
74
口口口口 |--①-|
③③②② |--②-|
②②③③ |--③-|
①①①① |----|
75
口⑥④口 |①-②-|
⑥口口④ |③-④-|
口口⑤口 |----|
③②①口 |⑤-⑥-|
76
口④③口 |----|
口②②口 |①---|
口口口口 |②---|
①③④① |③-④-|
77
⑤口口① |①---|
口④③口 |②-③-|
②⑤①口 |--④-|
④口口③ |--⑤-|
78
口③②① |--①-|
④⑤⑥⑦ |②-③-|
口口口口 |④-⑤-|
口口口口 |⑥-⑦-|
79
⑥口③口 |①---|
口④⑤口 |②-③-|
⑥②③② |--④-|
①④①口 |⑤-⑥-|
80
口口口口 |----|
口②③④ |①---|
口①①口 |--②-|
①口口① |③-④-|
81
②口口② |①---|
口口口口 |②-③-|
③口口口
口①①口

口口④口
⑤口口口
口口口④ |--④-|
口⑤口口 |--⑤-|
82
口口口③ |--①-|
口口②③ |②---|
口②①口 |----|
口口口口 |③---|
83
口④⑥口 |①-②-|
④口口⑥ |③-④-|
口⑤口口 |----|
口①②③ |⑤-⑥-|
84
口口口口 |----|
口②②口 |①---|
口口口口 |②---|
①③③① |③---|
85
①口口⑤ |①---|
口③④口 |②-③-|
口①⑤② |--④-|
③口口④ |--⑤-|
86
②①口口 |--①-|
口口③口 |--②-|
口③口口 |③---|
④口口口 |④---|
87
口③口⑥ |①---|
口⑤④口 |②-③-|
②③②⑥ |--④-|
口①④① |⑤-⑥-|
88
口口口口 |----|
口②③④ |①---|
口①①口 |--②-|
①口口① |③-④-|
89
口③②① |①---②-|
④⑤⑥口 |--③---|
口③②① |④---⑤-|
④⑤⑥口 |--⑥---|
90
①③①③ |①---②-|
口⑤口⑤ |--③---|
②口②口 |④---⑤-|
⑥④⑥④ |--⑥---|

accuracy: 99.5%
最終更新:2023年01月17日 11:32