アットウィキロゴ
めた・メタ?ひまわり*パンチ
ひまわり*パンチ

BASIC

Level: 2
BPM: 177
Notes: 175

1
口口口口 |----|
口口口口 |----|
口口口口 |----|
口口口口 |----|
2
口口口口 |----|
口口口口 |----|
口口口口 |----|
口①①口 |--①-|
3
口口口口 |----|
口口口口 |----|
口①①口 |----|
口口口口 |--①-|
4
口口口口 |----|
口①①口 |----|
口口口口 |----|
口口口口 |--①-|
5
口①①口 |----|
口口口口 |----|
口口口口 |----|
口口口口 |--①-|
6
①口口① |----|
口口口口 |----|
口口口口 |----|
口口口口 |--①-|
7
口口口口 |----|
①口口① |----|
口口口口 |----|
口口口口 |--①-|
8
口口口口 |----|
口口口口 |----|
①口口① |----|
口口口口 |--①-|
9
口口口口 |----|
口口口口 |----|
口口口口 |----|
①口口① |--①-|
10
口口口口 |----|
口口口口 |----|
口口口口 |----|
口口①口 |--①-|
11
口口口口 |----|
口口口口 |----|
①口②口 |①---|
口口口口 |--②-|
12
口口口口 |----|
①口②口 |----|
口口口口 |①---|
口口口口 |--②-|
13
①口②口 |----|
口口口口 |----|
口口口口 |①---|
口口口口 |--②-|
14
口口口口 |----|
口口口口 |----|
口口口口 |----|
口①口口 |--①-|
15
口口口口 |----|
口口口口 |----|
口②口① |①---|
口口口口 |--②-|
16
口口口口 |----|
口②②① |----|
口口口口 |①---|
口口口口 |--②-|
17
口口口口 |----|
口口口口 |----|
口①①口 |----|
口口口口 |--①-|
18
口口口口 |----|
口口口口 |----|
口口口口 |----|
口口口口 |----|
19
口口口① |①---|
口口口口 |----|
口口口口 |----|
口口口口 |----|
20
口口①口 |①---|
口口口口 |----|
口口口口 |----|
口口口口 |----|
21
口①口口 |①---|
口口口口 |----|
口口口口 |----|
口口口口 |----|
22
①口口口 |①---|
口口口口 |----|
口口口口 |----|
口口口口 |----|
23
口口口口 |①---|
①口口口 |----|
口口口口 |----|
口口口口 |----|
24
口口口口 |①---|
口①口口 |----|
口口口口 |----|
口口口口 |----|
25
口口口口 |①---|
口口①口 |----|
口口口口 |----|
口口口口 |----|
26
口口口口 |①---|
口口口① |----|
口口口口 |----|
口口口口 |----|
27
口口口口 |①---|
口口口口 |----|
口口口① |----|
口口口口 |----|
28
口口口口 |①---|
口口口口 |----|
口口①口 |----|
口口口口 |----|
29
口口口口 |①---|
口口口口 |----|
口①口口 |----|
口口口口 |----|
30
口口口口 |①---|
口口口口 |----|
①口口口 |----|
口口口口 |----|
31
口口口口 |①---|
口口口口 |----|
口口口口 |----|
①口口口 |----|
32
口口口口 |①---|
口口口口 |----|
口口口口 |----|
口①口口 |----|
33
口口口口 |①---|
口口口口 |----|
口口口口 |----|
口口①口 |----|
34
口口口口 |①---|
口口口口 |----|
口口口口 |----|
口口口① |----|
35
口口口口 |①---|
口口口口 |----|
口①①口 |----|
口口口口 |----|
36
口口口口 |①---|
口①①口 |----|
口①①口 |----|
口口口口 |----|
37
口口口口 |①---|
口口口① |----|
口口口口 |----|
口口口口 |----|
38
口口口口 |①---|
①口口口 |----|
口口口口 |----|
口口口口 |----|
39
口口口口 |①---|
口①①口 |----|
口①①口 |----|
口口口口 |----|
40
口口口口 |----|
口口口口 |----|
口口口口 |----|
口口口口 |----|
41
口口口口 |①---|
②口口② |----|
口口口口 |----|
口①①口 |--②-|
42
口口口口 |----|
口口口口 |----|
口口口口 |----|
口口口口 |----|
43
口口①① |----|
口口口口 |----|
口口口口 |----|
口口口口 |--①-|
44
①口口口 |----|
口口②② |----|
口口口口 |①---|
口口口口 |--②-|
45
口口口口 |----|
①口口口 |----|
口口②② |①---|
口口口口 |--②-|
46
口口口口 |----|
口口口口 |----|
①口口口 |①---|
口②②口 |--②-|
47
①①口口 |----|
口口口口 |----|
口口口口 |----|
口口口口 |--①-|
48
口口口① |----|
②②口口 |----|
口口口口 |①---|
口口口口 |--②-|
49
口口口口 |----|
口口口① |----|
②②口口 |①---|
口口口口 |--②-|
50
口口口口 |----|
口口口口 |----|
口口口① |①---|
口②②口 |--②-|
51
口口①① |----|
口口口口 |----|
口口口口 |----|
口口口口 |--①-|
52
①口口口 |----|
口口②② |----|
口口口口 |①---|
口口口口 |--②-|
53
口口口口 |----|
①口口口 |----|
口口②② |①---|
口口口口 |--②-|
54
口口口口 |----|
口口口口 |----|
①口口口 |①---|
口②②口 |--②-|
55
①①口口 |----|
口口口口 |----|
口口口口 |----|
口口口口 |--①-|
56
口口口① |----|
②②口口 |----|
口口口口 |①---|
口口口口 |--②-|
57
口口口口 |----|
口口口① |----|
②②口口 |①---|
口口口口 |--②-|
58
口口口口 |----|
口口口口 |----|
口口口① |①---|
口②②口 |--②-|
59
口口口口 |----|
口口口口 |----|
口口口口 |----|
口口①① |--①-|
60
口口口口 |----|
口口口口 |----|
口口②② |①---|
①口口口 |--②-|
61
口口口口 |----|
口口②② |----|
①口口口 |①---|
口口口口 |--②-|
62
口②②口 |----|
①口口口 |----|
口口口口 |①---|
口口口口 |--②-|
63
①口口① |----|
口口口口 |----|
口口口口 |----|
口口口口 |--①-|
64
口口口口 |----|
口①①口 |①---|
口②②口 |②---|
口③③口 |③---|
65
④口口④ |①---|
③口口③ |②---|
②口口② |③---|
①口口① |④---|
66
④①①④ |①---|
口②②口 |②---|
口③③口 |③---|
口口口口 |--④-|
67
口口口口 |----|
口口口口 |----|
口口口口 |----|
①①口口 |--①-|
68
口口口口 |----|
口口口口 |----|
②②口口 |①---|
口口口① |--②-|
69
口口口口 |----|
②②口口 |----|
口口口① |①---|
口口口口 |--②-|
70
口②②口 |----|
口口口① |----|
口口口口 |①---|
口口口口 |--②-|
71
①口口① |----|
口口口口 |----|
口口口口 |----|
口口口口 |--①-|
72
口口口口 |----|
口①①口 |①---|
口②②口 |②---|
口③③口 |③---|
73
口口口口 |①---|
③口口③ |②---|
②④④② |③---|
①④④① |--④-|
74
①①①① |----|
口口口口 |----|
口口口口 |----|
口口口口 |--①-|

accuracy: 100%
最終更新:2022年04月24日 03:08