アットウィキロゴ
めた・メタ?ひまわり*パンチ
ひまわり*パンチ

ADVANCED

Level: 5
BPM: 177
Notes: 349

1
口口口口 |----|
口口口口 |----|
口口口口 |----|
口口口口 |----|
2
口口口口 |----|
口口口口 |----|
①①口口 |----|
①①口口 |--①-|
3
口口口① |----|
口口①口 |----|
口口②② |①---|
口口②② |--②-|
4
①口口口 |----|
口①口口 |----|
②②口口 |①---|
②②口口 |--②-|
5
口②口口 |----|
口口①口 |①---|
口口口① |②---|
口③③口 |--③-|
6
①口口① |----|
口口口口 |----|
口口口口 |----|
口口口口 |--①-|
7
③口口③ |----|
口口口口 |①---|
口②①口 |②---|
口②①口 |--③-|
8
口口口口 |----|
③③③③ |①---|
口②①口 |②---|
口②①口 |--③-|
9
口口口口 |----|
口口③口 |----|
口②口口 |--①-|
口口①口 |②-③-|
10
①①口口 |----|
口口口口 |----|
口口口口 |----|
口口口口 |--①-|
11
口口③③ |----|
口②口口 |①---|
口口口口 |②---|
口①口口 |--③-|
12
口口口口 |----|
口口②口 |①---|
口③③口 |②---|
口口①口 |--③-|
13
④④口口 |----|
①口②① |①---|
口口口口 |②-③-|
口③口口 |--④-|
14
口口①① |----|
口口口口 |----|
口口口口 |----|
口口口口 |--①-|
15
③③口口 |----|
口口②口 |①---|
口口口口 |②---|
口口①口 |--③-|
16
③口口③ |----|
口②口口 |①---|
口③③口 |②---|
口①口口 |-③--|
17
口口口口 |----|
口口③口 |----|
口②口口 |--①-|
口口①口 |②-③-|
18
口口口口 |----|
口口口口 |----|
口口口口 |----|
口口口口 |----|
19
口④口口 |----|
③口口口 |①---|
②口口口 |②---|
①口口口 |③-④-|
20
口口口① |--①-|
口口口口 |----|
口口口口 |----|
口口口口 |----|
21
口口④口 |----|
口口口③ |①---|
口口口② |②---|
口口口① |③-④-|
22
①口口口 |--①-|
口口口口 |--②-|
②口口口 |----|
口口口口 |----|
23
口口口③ |----|
口口口③ |①---|
口口口口 |②---|
口②①口 |--③-|
24
②口口口 |----|
②③口口 |①---|
口口①口 |②---|
口口口口 |③---|
25
口口①① |①---|
口口④口 |----|
口③口口 |--②-|
口口②口 |③-④-|
26
口口口口 |----|
口口口口 |----|
口口口口 |----|
口口口口 |----|
27
口口④口 |----|
口口口③ |①---|
口口口② |②---|
口口口① |③-④-|
28
①口口口 |--①-|
口口口口 |----|
口口口口 |----|
口口口口 |----|
29
口④口口 |----|
③口口口 |①---|
②口口口 |②---|
①口口口 |③-④-|
30
口口口① |--①-|
口口口口 |--②-|
口口口② |----|
口口口口 |----|
31
口口口④ |----|
口口③口 |①-②-|
口①口口 |---③|
口口②口 |--④-|
32
①①口口 |----|
②口口口 |①---|
③口口口 |②---|
口口口口 |③---|
33
口口④口 |①---|
口③口口 |----|
口口②口 |--②-|
口口①① |③-④-|
34
口口口口 |----|
口口口口 |----|
②口口① |①---|
②口口① |②---|
35
②口口① |①---|
口②①口 |----|
口口口口 |②---|
口口口口 |----|
36
口口口② |①---|
③口口口 |----|
口①①口 |----|
口①①口 |②-③-|
37
⑤口口⑤ |①-②-|
口③③口 |--③-|
口④④① |--④-|
②口口口 |--⑤-|
38
口口口口 |----|
口口口口 |----|
口②②口 |①---|
口口①① |②---|
39
口口口口 |①---|
①①口口 |----|
口③③口 |②---|
②②口口 |③---|
40
③口口口 |①---|
②口①① |----|
口口口口 |②---|
口口口口 |③---|
41
口口①① |①---|
口③口口 |②-③-|
口口②口
口口口口

⑤⑤⑤⑤
口口口口
口口口口 |--④-|
④④④④ |--⑤-|
42
口口口口 |----|
口口口口 |----|
口口口口 |----|
口口口口 |----|
43
④口④口 |--①-|
口①②③ |②-③-|
口①②③ |----|
口口口口 |--④-|
44
口③口③ |----|
口②口口 |①---|
②①口口 |②---|
①口口口 |--③-|
45
③口口口 |----|
口口②口 |①---|
③口①② |②---|
口口口① |--③-|
46
口口口② |----|
口口口口 |①---|
口①①② |②---|
口③③口 |--③-|
47
口①①口 |----|
①口口① |----|
口口口口 |----|
口口口口 |--①-|
48
③口口③ |----|
口③③口 |①---|
口②①口 |②---|
口②①口 |--③-|
49
③③③③ |----|
口口口口 |①---|
口②①口 |②---|
口②①口 |--③-|
50
口口口口 |----|
口口③口 |----|
口②口口 |--①-|
口口①口 |②-③-|
51
口①口① |----|
口口口口 |----|
口口口口 |----|
口口口口 |--①-|
52
③口③口 |----|
口口②口 |①---|
口口①② |②---|
口口口① |--③-|
53
口口口③ |----|
口②口口 |①---|
②①口③ |②---|
①口口口 |--③-|
54
②口口口 |----|
口口口口 |①---|
②①①口 |②---|
口③③口 |--③-|
55
口①①口 |----|
①口口① |----|
口口口口 |----|
口口口口 |--①-|
56
③口口③ |----|
口③③口 |①---|
口①②口 |②---|
口①②口 |--③-|
57
③③③③ |----|
口口口口 |①---|
口①②口 |②---|
口①②口 |--③-|
58
口口口口 |----|
口③口口 |----|
口口②口 |--①-|
口①口口 |②-③-|
59
口口口① |----|
口口口① |----|
口口口口 |----|
口口口口 |--①-|
60
②①口口 |----|
口口口口 |①---|
③口口口 |②---|
③口口口 |--③-|
61
口口口③ |----|
口口口口 |①---|
口口③口 |②---|
口口①② |--③-|
62
③口口口 |----|
口①②口 |①---|
口③口口 |②---|
口口口口 |--③-|
63
口口口口 |----|
口口口口 |----|
口口口口 |----|
口①①口 |--①-|
64
口③口① |----|
口③②① |①---|
口口②口 |②---|
口口口口 |③---|
65
口⑤⑤口 |①---|
口口口口 |②---|
①②③④ |③---|
①②③④ |④-⑤-|
66
④口口④ |----|
口②口口 |①---|
①②③口 |②---|
①口③口 |③-④-|
67
②口口口 |----|
②口口口 |①---|
口口口口 |----|
口①口口 |--②-|
68
口口①② |----|
口口口口 |①---|
口口口③ |②---|
口口口③ |--③-|
69
③口口口 |----|
口口口口 |①---|
口③口口 |②---|
②①口口 |--③-|
70
口口口③ |----|
口②①口 |①---|
口口③口 |②---|
口口口口 |--③-|
71
口①①口 |----|
口口口口 |----|
口口口口 |----|
口口口口 |--①-|
72
口口口口 |----|
口口②口 |①---|
口③②① |②---|
口③口① |③---|
73
⑤②⑤② |①---|
①③口③ |②---|
①④口④ |③---|
口口口口 |④-⑤-|
74
⑤口口④ |--①-|
③口口③ |②---|
口口①口 |③---|
④②②⑤ |④-⑤-|
75
口③口④ |--①-|
口口口口 |②---|
口①①③ |③-④-|
④②②口 |----|

accuracy: 100%
最終更新:2022年04月24日 03:21