アットウィキロゴ
めた・メタ?ひまわり*パンチ
ひまわり*パンチ

EXTREME

Level: 9.2
BPM: 177
Notes: 638

1
口口口口 |----|
口口口口 |----|
口口口口 |----|
口口口口 |----|
2
口口口① |----|
口口①口 |----|
①①口口 |----|
①①口口 |--①-|
3
②口口口 |--①-|
③口口③ |②---|
口口口口 |③---|
口④④① |--④-|
4
①口④① |--①-|
口③②口 |②---|
口③②⑥ |③-④-|
③⑤⑥② |⑤-⑥-|
5
②①口口 |--①-|
口口③④ |②---|
⑤口口口 |③-④-|
口⑤口口 |--⑤-|
6
④①③① |--①-|
④口③口 |②-③-|
口②口② |--④-|
⑤口⑤口 |--⑤-|
7
③口②口 |--①-|
口口口① |②---|
③口口口 |③---|
口④口④ |--④-|
8
口②④口 |--①-|
①口口③ |②---|
口口口口 |③-④-|
⑤⑤⑤⑤ |--⑤-|
9
③④⑤② |--①-|
口口①口 |②---|
④③②① |③---|
口⑤口口 |④-⑤-|
10
⑤口口口 |--①-|
③③②口 |②---|
④④②① |③-④-|
口口⑤① |--⑤-|
11
口口②④ |--①-|
口口①② |②---|
口口口① |③---|
③④口③ |--④-|
12
口②口⑤ |--①-|
②①口⑤ |②---|
①④④口 |③-④-|
③口口③ |--⑤-|
13
③⑤⑤口 |--①-|
③口口口 |②---|
①口口④ |③-④-|
口口②口 |--⑤-|
14
③口口④ |--①-|
口口口② |--②-|
口②③口 |--③-|
①④口① |--④-|
15
④②口口 |--①-|
②①口口 |②---|
①口口口 |③---|
③口④③ |--④-|
16
⑤口②⑤ |--①-|
口口①② |②---|
口④④① |③-④-|
③口口③ |--⑤-|
17
⑥③③口 |--①-|
口⑤口口 |②---|
①口④① |③-④-|
口②②口 |⑤-⑥-|
18
口口④④ |--①-|
③口口① |②---|
③口口口 |③-④-|
口口口② |----|
19
口口口口 |----|
口口口口 |①-②-|
④⑤口口 |③---|
口①②③ |④-⑤-|
20
口口口口 |--①-|
口口口① |----|
口口口口 |----|
口口口口 |----|
21
口口口口 |----|
口口口口 |①-②-|
口口⑤④ |③---|
③②①口 |④-⑤-|
22
口口②口 |--①-|
①口口口 |--②-|
口口口口 |----|
口口口口 |----|
23
口口口③ |----|
①①②② |①---|
口口口口 |②---|
③口口口 |--③-|
24
口①口口 |----|
①③②口 |①---|
口②③① |②---|
口口①口 |③---|
25
①口口① |①---|
口口口口 |----|
口口口口
口口口口

口口口④
口口③④
口②③口 |--②-|
口②口口 |③-④-|
26
④口③口 |①---|
①①口口 |②-③-|
口④口③ |--④-|
②口②口 |----|
27
口①口① |①---|
口口口口 |②-③-|
口口口口
口②③口

口⑥⑥⑥
口⑥口⑥
⑤口⑥口 |④---|
口口口④ |⑤-⑥-|
28
口口口口 |--①-|
②口①口 |----|
口口口③ |②---|
口口口口 |③---|
29
①口①口 |①---|
口⑥口口 |②-③-|
⑥口口⑤ |④---|
④③②口 |⑤-⑥-|
30
①①口口 |--①-|
口口口③ |--②-|
口口口口 |----|
口口②② |③---|
31
③②③② |①---|
口口⑤口 |②-③-|
①口口⑤ |---④|
口④口口 |--⑤-|
32
③①口② |----|
口口口口 |①---|
口口口口 |②---|
②口①③ |③---|
33
口⑤④口 |①---|
⑤口①④ |②---|
③②①⑥ |③-④-|
口口⑥口 |⑤-⑥-|
34
②口②① |----|
口口②口 |①---|
口①口口 |②---|
③③口③ |③---|
35
口①口口 |①---|
④口口③ |②---|
①口口② |③---|
口口③口 |④---|
36
口口口③ |①---|
口②①口 |②---|
口口④⑤ |③---|
③口⑤④ |④-⑤-|
37
②①③口 |①-②-|
①②③③ |--③-|
④口⑤口 |--④-|
④④⑤⑤ |--⑤-|
38
①口①口 |----|
口口口口 |----|
口②口② |①---|
口口口口 |②---|
39
口①口① |①---|
③①①① |----|
③③①口 |②---|
②③口② |③---|
40
口②②口 |①---|
口③③① |----|
口口①① |②---|
口口①口 |③---|
41
①⑤⑤① |①---|
⑤④④⑤ |②-③-|
口⑤⑤口 |--④-|
②③③② |--⑤-|
42
口④口② |--①-|
口口③口 |--②-|
口④口② |--③-|
①口③① |--④-|
43
②口③③ |--①-|
②口口口 |②-③-|
口口④口 |----|
①①④口 |--④-|
44
③口②④ |--①-|
口口口① |②---|
③⑤口口 |③---|
口⑤口口 |④-⑤-|
45
口②④口 |--①-|
①口口③ |②---|
口口口⑤ |③-④-|
口口⑤口 |--⑤-|
46
②①口口 |--①-|
口口③④ |②---|
⑤口口口 |③-④-|
口⑤口口 |--⑤-|
47
④①③① |--①-|
④口③口 |②-③-|
口②口② |--④-|
⑤⑤⑤口 |--⑤-|
48
③口②④ |--①-|
口口口① |②---|
③口口口 |③---|
口⑤⑤⑤ |④-⑤-|
49
口②④口 |--①-|
①口口③ |②---|
口口口口 |③-④-|
⑤⑤⑤⑤ |--⑤-|
50
③④⑤② |--①-|
口口①③ |②---|
④③②① |③---|
口⑤④口 |④-⑤-|
51
口口口④ |--①-|
③③②口 |②---|
④④②① |③-④-|
⑤⑤⑤① |--⑤-|
52
③口②④ |--①-|
口口口① |②---|
③口口④ |③---|
口⑤⑤⑤ |④-⑤-|
53
口②④口 |--①-|
①口口③ |②---|
口④②⑤ |③-④-|
口口⑤⑤ |--⑤-|
54
②①口口 |--①-|
口口③④ |②---|
⑤口口口 |③-④-|
⑤⑤口口 |--⑤-|
55
③①③① |--①-|
③④口口 |②-③-|
口②④② |--④-|
⑤⑤⑤④ |--⑤-|
56
③口②④ |--①-|
口口②① |②---|
③口口④ |③---|
口⑤⑤⑤ |④-⑤-|
57
口②④口 |--①-|
①口口③ |②---|
口④②口 |③-④-|
⑤⑤⑤⑤ |--⑤-|
58
③③口① |--①-|
口口口口 |②---|
④⑤②② |③---|
口⑤口口 |④-⑤-|
59
⑤口口④ |--①-|
口③②① |②---|
口口③口 |③-④-|
④口②① |--⑤-|
60
口口①⑤ |--①-|
③口口② |②---|
口口口⑤ |③---|
口②③④ |④-⑤-|
61
口④⑤口 |①-②-|
⑦口口⑦ |③---|
口③②口 |④-⑤-|
①③④⑥ |⑥-⑦-|
62
⑦⑦口⑤ |①-②-|
口③④口 |③---|
口口②口 |④-⑤-|
①③④⑥ |⑥-⑦-|
63
④口②④ |--①-|
③口口口 |--②-|
口①①③ |--③-|
口②口口 |--④-|
64
口口⑨⑨ |----|
⑧④⑦③ |①②③④|
⑩口口⑪ |⑤⑥⑦⑧|
②⑥①⑤ |⑨-⑩⑪|
65
③口口口 |①②③④|
口⑤⑧④ |⑤⑥⑦⑧|
口①②口
⑦口口⑥

口⑨⑭⑫
⑬口口口
⑮⑮口口 |⑨⑩⑪⑫|
口⑪⑩口 |⑬⑭⑮-|
66
④口口口 |----|
④②口① |①---|
口口③③ |②---|
口②口① |③-④-|
67
③口②口 |--①-|
口口①② |②---|
③①口口 |----|
口口口口 |--③-|
68
口口①⑤ |--①-|
③③口② |②---|
口口口⑤ |③---|
口②③④ |④-⑤-|
69
④⑤⑥口 |①-②-|
⑧口口⑧ |③-④-|
⑧③②⑧ |⑤-⑥-|
①③⑤⑦ |⑦-⑧-|
70
④口⑧口 |①-②-|
口③⑥口 |③-④-|
口⑤②⑧ |⑤-⑥-|
①③⑤⑦ |⑦-⑧-|
71
④口口④ |--①-|
①③口② |--②-|
口③②口 |--③-|
③①②口 |--④-|
72
口②⑤口 |----|
④⑩⑨⑦ |①②③④|
⑧⑫⑪③ |⑤⑥⑦⑧|
口⑥①口 |⑨⑩⑪⑫|
73
②⑥口① |①②③④|
⑧口口口 |⑤⑥⑦⑧|
口口口⑦
④口⑤③

口口⑨⑮
口⑭⑬⑪
⑫口⑮口 |⑨⑩⑪⑫|
口⑩口口 |⑬⑭⑮-|
74
①①⑤口 |--①-|
口④口口 |②---|
口②④③ |③---|
②⑤③口 |④-⑤-|
75
①④口④ |--①-|
口④②④ |②---|
口②口口 |③-④-|
③口③① |----|

accuracy: 100%
最終更新:2022年04月24日 03:45