アットウィキロゴ
創世ノート [ 2 ]
PON+wac

EXTREME

Level: 10.4
BPM: 200
Notes(hold): 765(76)

1
口口口口 |----|
口口口口 |----|
口口口口 |----|
口口口口 |----|
2
口口口口 |①---|
①口<口 |----|
口口口口 |----|
口口口① |----|
3
口口口① |①---|
口口口口 |----|
①口<口 |----|
口口口口 |----|

口口口口
①口口口
口口口口
口口口口
4
口口口口 |①---|
口口口① |----|
口口口② |②---|
①口<口 |----|

口口口口
口口口口
①口口口
口口口口
5
口口口① |①---|
①口<口 |----|
②口<口 |②---|
口口口② |----|

口口口口
②口口口
口口口口
①口口口
6
口口口口 |①---|
口口口① |----|
口口口口 |----|
①口<口 |----|

口口口口
口口口口
①口口口
口口口口
7
口口口口 |①---|
①口<② |----|
口口口口 |②---|
口口口① |----|

口口口口
口口口口
口口口口
①口口口
8
口口口口 |①---|
口口口口 |----|
①>口① |----|
口口口口 |----|

口口口口
①口口口
口口口口
口口口口
9
①口口① |①---|
口口口口 |----|
口口口口 |----|
∧口口∧ |----|

口口口口
口口口口
口口口①
口口口口
10
口口口口 |----|
口口口口 |----|
口口口口 |----|
口口口口 |----|
11
口∨∨口 |①---|
口①①口 |----|
口①①口 |----|
口∧∧口 |----|

①口口①
口口口口
口口口口
口口口口
12
口口口口 |①---|
口口口口 |----|
②口口③ |②---|
②口口③ |③---|

口口口口
口①①口
口①①口
口口口口
13
②∨∨③ |①---|
④①①口 |----|
口口口口 |--②-|
口口口口 |③-④-|

口口口口
口②②口
口口口口
口口口口
14
口口口口 |①---|
口口口① |----|
∨口口∧ |②---|
②口口口 |----|

口口口口
口口口②
口口口口
口口口口
15
②口①① |①---|
③口口口 |②---|
④口口口 |③---|
口口∧∧ |④---|

口口口口
口口口口
口口口口
①口口口
16
口口口口 |①---|
④③口口 |②---|
④③口口 |③---|
①②口口 |④---|

口口②②
口口口口
口口口口
口口口口
17
①①口② |①---|
口口④③ |②---|
口口⑥⑤ |③-④-|
∧∧口口 |⑤-⑥-|

③③口口
口口口口
口口口口
口口口口
18
口口④口 |①---|
③口<口 |②---|
口②口口 |③---|
口>口① |④---|

口口口口
④口口口
口口口口
口口口②
19
口∨口② |①---|
口口口⑤ |②---|
口口口① |③-④-|
口①④③ |--⑤-|
20
口⑥⑥口 |①-②-|
②口①口 |③-④-|
④口③口 |⑤---|
口口⑤⑤ |⑥---|

口口口口
口口口口
口口口口
口①口口
21
口口口② |①---|
∨∨口口 |②---|
口口口① |③-④-|
①①口口 |--⑤-|

口口口口
口④口口
口⑤⑤口
口口④③

口口口口
口口口口
口口口口
③③口口
22
口口①口 |①---|
②⑦口① |----|
③⑥口② |②③④-|
④⑤②口 |⑤⑥⑦-|
23
②②口∨ |①---|
口口口① |--②-|
口口口∨ |----|
③③口① |③---|
24
口③③口 |①---|
②口①口 |--②-|
②口①口 |----|
口口口口 |③---|
25
口口④口 |①---|
口③口口 |②---|
口口②口 |③---|
口①口口 |④---|

口口口口
口口口①
口口口口
口口口①
26
①②④⑤ |①-②-|
②④⑤∧ |--③-|
①③④⑤ |--④-|
③④⑤∧ |--⑤-|
27
①②口口 |①-②-|
口④口口 |--③-|
口③④口 |----|
③口口口 |④---|
28
口①口口 |--①-|
①口口口 |----|
③②口口 |②---|
口③②口 |③---|
29
口②②口 |①---|
口口口① |②---|
口口口口 |----|
口③③① |③---|

口口口①
口口口口
口口口①
口口口口
30
⑥⑤②① |①-②-|
∧⑥⑤③ |③-④-|
⑥⑤④口 |--⑤-|
∧⑥⑤④ |--⑥-|
31
口口②① |①-②-|
口口④口 |--③-|
口④③口 |----|
口口口③ |④---|
32
口口①口 |--①-|
口口口① |----|
口口②③ |②---|
口②③口 |③---|
33
口②②口 |①---|
①口口口 |②---|
口口口口 |----|
①③③口 |③---|

①口口口
口口口口
①口口口
口口口口
34
②口口① |①-②-|
⑥口口⑤ |③-④-|
④⑧⑦③ |⑤-⑥-|
口⑩⑨口 |⑦⑧⑨⑩|
35
③①③口 |①-②-|
⑤口①③ |--③-|
④⑤④口 |--④-|
②口口④ |--⑤-|
36
②口口口 |--①-|
口口①口 |--②-|
口口口① |--③-|
口②口口 |--④-|

∨口③口
口口口口
④口口口
口④③
37
②口口③ |----|
④口口口 |①---|
口口口口 |--②-|
口口口口 |③-④-|

口口口口
口口口口
①口口口
口口①口
38
④口①口 |①-②-|
口口③① |--③-|
②④口口 |--④-|
口②口③ |----|
39
口③①③ |①-②-|
③口口① |--③-|
口口口口 |--④-|
口口②口 |--⑤-|

⑤口口口
口口口⑤
口④⑤④
④口口口
40
④<④< |--①-|
②①①④ |--②-|
①③口③ |--③-|
口②③② |--④-|
41
口口口口 |----|
口口②口 |①---|
口④③口 |--②-|
口口口口 |③-④-|

①口①口
口口口口
口口口口
口口口口
42
③口③① |①-②-|
口③口④ |--③-|
②⑥⑤① |--④-|
口②口口 |⑤-⑥-|
43
口口口④ |①-②-|
①口⑦⑤ |③-④-|
口口⑧⑥ |⑤-⑥-|
∧③②① |⑦-⑧-|
44
口②口口 |①-②-|
口③口口 |③-④-|
口④口口 |⑤-⑥-|
口口①口 |⑦-⑧-|

口口⑥⑤
口口⑦⑥
口口口⑧
口口⑧口

口口口口
①口口口
口口口口
口口口口
45
口⑦口口 |①-②-|
⑥⑧口口 |③-④-|
④⑤②口 |⑤-⑥-|
⑤③口① |⑦-⑧-|
46
①口口④ |①-②-|
口口⑦⑤ |③-④-|
∧口⑧⑥ |⑤-⑥-|
口③②① |⑦-⑧-|
47
口②口口 |①-②-|
口③口口 |③-④-|
口④口口 |⑤-⑥-|
口口①口 |⑦-⑧-|

口口⑥⑤
口口⑦⑥
口口口⑧
口口⑧口

①口口口
口口口口
口口口口
口口口口
48
口⑦⑦口 |①-②-|
⑥口口⑥ |③-④-|
④⑤②口 |⑤-⑥-|
⑤③口① |⑦---|
49
①>口⑥ |①---|
③口⑤口 |②---|
②④∨① |③-④-|
⑤口①∧ |⑤-⑥-|

口口口口
口口口口
口口口③
口口③口
50
①口口口 |①---|
口③口③ |②---|
②口口口 |③---|
口④口④ |④---|

口口口②
口口口口
口口口口
口口口口
51
①口①口 |①---|
∧口口口 |②---|
口口口口 |③-④-|
口口口口 |⑤-⑥-|

口口⑥⑤
口口∧④
⑥<④③
⑤④③口

②口口口
口口口口
口口口口
口口口口
52
②①口③ |----|
①口口口 |①---|
口口口口 |②---|
③口口② |③---|

口口①口
口口口口
①口口口
口口口口
53
③④③口 |①---|
③①③① |②-③-|
⑤①⑤① |--④-|
⑤②⑤口 |⑤---|
54
口⑥④① |①-②-|
⑤⑥④③ |--③-|
口②口② |④-⑤-|
口②口② |⑥---|
55
④⑧口① |①-②-|
口口口⑤ |③-④-|
⑦口口口 |⑤-⑥-|
③口⑥② |⑦-⑧-|
56
口口③① |--①-|
口口①③ |②-③-|
口②<④ |--④-|
②<④口 |⑤---|

口口口口
口口口口
口⑤口口
⑤口口口
57
①口③ |①---|
①<②口 |----|
口口口口 |----|
口口口口 |②-③-|

口②口口
②口口口
口口口口
口口口口
58
口口口口 |----|
口口口口 |----|
①口口口 |①---|
口②口口 |②---|
59
口口∨口 |①---|
口口口口 |----|
口口口口 |----|
口口①口 |②-③-|

口口口口
口口③口
口②口③
口口口口

口口口口
口口口口
口口口口
口口②口
60
口口口口 |----|
口口口口 |----|
①口②口 |①---|
口①口② |②---|
61
②口①口 |①---|
口②口① |②---|
③口④口 |③---|
口③口④ |④---|
62
②②①① |①---|
②口口① |②---|
③口口④ |③---|
③③④④ |④---|
63
口③①口 |①-②-|
③②④① |③-④-|
⑤⑧⑥⑦ |⑤-⑥-|
口⑤⑦口 |⑦-⑧-|
64
④④①② |①---|
④口②① |②-③-|
口口口④ |--④-|
③口④④ |----|
65
口③①< |①---|
③①口口 |----|
口口①口 |②-③-|
口①口口 |④-⑤-|

口口口⑤
口⑤④口
口④口∧
口口口口

口口②口
口口口口
口口口口
口口口口
66
口口口口 |----|
②口<口 |①---|
口③③口 |②---|
②①①口 |③---|

口口口①
③口口口
口口口口
口口口口
67
口口∨∨ |①--②|
口口口口 |--③-|
口口口口 |④--⑤|
口③②① |--⑥-|

∨∨口口
口口口口
④⑤⑥口
口口口口

口口口口
口口口口
⑤⑥口口
口口③②
68
③④∨∨ |①--②|
④③②① |--③-|
口口口口 |④---|
口口口口 |----|

口口口口
口口③②
口口口口
口口口口
69
④③②① |①---|
④口④④ |②---|
口①②③ |③---|
①②③口 |④---|
70
口口⑥③ |①--②|
口④口口 |--③-|
④①②⑤ |④--⑤|
①口⑤② |--⑥-|
71
②①口② |①---|
①③③口 |--②-|
②②< |----|
口口口口 |③---|

口口口口
口口口口
口③③口
口口口口
72
③①②④ |①-②-|
口口口口 |--③-|
口口口∧ |--④-|
③①②④ |--⑤-|

口口口⑤
口口口口
口口口口
口口口口
73
①口口 |①---|
口口①口 |--②-|
口①口口 |--③-|
口口①口 |④-⑤-|

⑤口③口
口④⑤③
∧口④口
口口口口

口②口口
口口口口
口口口口
口口口口
74
口口口口 |--①-|
③口口④ |②---|
口②口① |③---|
②口①口 |④---|

①口口口
口口口口
口口口口
口口口口
75
②④口① |①--②|
③⑤口⑥ |--③-|
③口⑤⑥ |④--⑤|
②④口① |--⑥-|
76
④口①③ |①--②|
口口②口 |--③-|
口②口口 |④---|
③口①④ |----|
77
口①④口 |①---|
④口口① |②---|
②口口③ |③---|
口③②口 |④---|
78
①④⑤② |①--②|
⑥口③口 |--③-|
⑥口③口 |④--⑤|
①④⑤② |--⑥-|
79
①②口口 |①---|
口口口② |--②-|
③口口口 |----|
①口③口 |③---|
80
①口口③ |①-②-|
口①③口 |③-④-|
⑤②④⑤ |--⑤-|
②⑤⑤④ |----|
81
①∨①∨ |①---|
∧①∧① |----|
口口口口 |----|
口口口口 |----|
82
口口口口 |----|
口口口口 |----|
口口口口 |----|
口口口口 |----|
83
口口口口 |①---|
口口口口 |----|
口口②口 |②---|
口口口口 |----|

①口①口
口①口①
口口口口
口口口口
84
③①口口 |①---|
口③②④ |②---|
口口④② |③---|
口口口口 |④---|
85
②口③口 |①---|
③口②口 |----|
①③口口 |----|
口①口口 |②-③-|
86
口口口口 |----|
口①口② |----|
口②口① |----|
口口②口 |①-②-|
87
②口①口 |----|
①口②口 |----|
口②口口 |----|
口口口口 |①-②-|
88
②口口① |----|
①口口② |----|
口②①口 |----|
口口口口 |①-②-|
89
口⑤⑤口 |①-②-|
⑤③②口 |③-④-|
④口口① |--⑤-|
④③②① |----|
90
口口口① |①-②-|
口口①∧ |③-④-|
口②口① |--⑤-|
④③①∧ |⑥-⑦-|

⑥口口口
⑤⑦⑦口
口口口口
口口口口
91
④口④口 |--①-|
口口口口 |②---|
口①口口 |③---|
③②③口 |④---|
92
口①口口 |①---|
口②②口 |②---|
①口口口 |----|
口③③口 |③---|

口口口②
口口口口
口口口②
口口口口
93
①②⑤⑥ |①-②-|
③⑤⑥∧ |③-④-|
口④⑤⑥ |--⑤-|
④⑤⑥∧ |--⑥-|
94
②①⑥口 |①-②-|
③⑤⑦口 |③-④-|
④口⑦口 |--⑤-|
口口口口 |⑥-⑦-|
95
④口④口 |--①-|
口口口口 |②---|
口①口口 |③---|
③②③口 |④---|
96
口①口口 |①---|
口②②口 |②---|
①口口口 |----|
口③③口 |③---|

口口口②
口口口口
口口口②
口口口口
97
①②口口 |①-②-|
③口口口 |③-④-|
口④口口 |--⑤-|
④口口口 |--⑥-|

⑥口⑤⑥
∧⑤口∧
⑥口⑤⑥
∧⑤口∧
98
口口口口 |----|
口口口口 |----|
口口口口 |----|
口口口口 |----|
99
口口口口 |----|
口口口口 |----|
口口口口 |----|
口口口口 |----|
100
口口口口 |①---|
口口口口 |----|
口口口口 |----|
口口口口 |----|

①口口①
口口口口
①口口①
口口口口
最終更新:2019年11月04日 16:53