アットウィキロゴ
Polaris [ 2 ]
Mutsuhiko Izumi

EXTREME

Level: 9.0
BPM: 180
Notes(hold): 558(113)

1
口口口口 |----|
口口口口 |----|
口口口口 |----|
口口口口 |----|
2
口口口口 |①---|
口口口口 |②---|
口口口口 |③-④-|
―①口 |--⑤-|

口②―<
口口口口
口口口口
口口②口

口③口口
口④―<
口口③口
口口口口

口口口口
口⑤口口
口口口口
口口口⑤
3
口口口∨ |①---|
口口口| |②-③-|
口口口① |--④-|
口口口口 |⑤-⑥-|

∨口口口
|口口口
③口口②
②口口口

口口口口
口口⑥口
④⑤口口
口口④口
4
口口口口 |①---|
口口口口 |②---|
口口口口 |③-④-|
口>―① |--⑤-|

②―<口
口口口口
口口口口
口口口②

③口口口
口>―④
口口③口
口口口口

口口口口
⑤口口⑤
口口口口
口口口口
5
口①―< |①---|
口口口口 |②---|
口口口口 |③④⑤⑥|
口口口口 |⑦⑧⑨⑩|

⑥②口③
⑩④⑦⑨
⑧口口⑤
口口口口
6
口口口口 |①---|
口口口口 |②---|
口口口口 |③-④-|
―①口 |--⑤-|

口②―<
口口口口
口口口口
口口②口

口③口口
口④―<
口口③口
口口口口

口口口口
口⑤口口
口口口口
口口口⑤
7
口口口∨ |①---|
口口口| |②-③-|
口口口① |--④-|
口口口口 |⑤-⑥-|

∨口口口
|口口口
③口口②
②口口口

口口口口
口口⑥口
④⑤口口
口口④口
8
口口口口 |①---|
口口口口 |②---|
口口口口 |③-④-|
口>―① |--⑤-|

②―<口
口口口口
口口口口
口口口②

③口口口
口>―④
口口③口
口口口口

口口口口
⑤口口⑤
口口口口
口口口口
9
口①口口 |①---|
口|口口 |②---|
口|③① |③---|
口∧口② |④---|

口④口口
口口口口
口口口口
口口④口
10
口口口口 |①---|
①口口① |----|
口口口口 |②-③-|
⑤④③② |④-⑤-|
11
口口口口 |①---|
①――< |②-③-|
口口口口 |④-⑤-|
口口口口 |----|

口③④⑤
②口口∧
口③④⑤
口口口∧
12
口口口① |①---|
口口口口 |----|
口口口① |--②-|
口②③④ |③-④-|
13
口口>① |①---|
口口口口 |--②-|
口口>① |----|
口口口口 |③---|

②口②
口口口口
②口②
口口口口

口③口口
口口口口
口③口口
口口口口
14
口口口口 |①---|
口①①口 |----|
口口口口 |②-③-|
⑤④③② |④-⑤-|
15
口口口口 |①---|
①――< |②---|
口口口口 |③-④-|
口口口口 |⑤-⑥-|

③④⑤⑥
②口口口
口口口口
口口口口
16
口口口口 |①---|
口口口口 |②-③-|
――① |④---|
口口口口 |----|

∨口口口
④③口口
∨口口②
④③口口
17
口口口口 |----|
①口口口 |①---|
③②②③ |②---|
①口口口 |③---|
18
①口口① |①---|
口口口口 |----|
口口口口 |②-③-|
⑤④③② |④-⑤-|
19
口口口口 |①---|
①――< |----|
口口口口 |②-③-|
口口口口 |④-⑤-|

口口口口
②口口口
口③④⑤
口口口口
20
――① |①---|
口口口口 |--②-|
口口口口 |----|
口口口口 |③-④-|

口口口②
口④③口
②口口口
口④③口
21
∨口口口 |①---|
①口口口 |--②-|
∨口口口 |----|
①口口口 |--③④|

口口口②
②口④口
口③口口
②口口口
22
①口口 |①---|
口口口口 |--②-|
口口口口 |----|
口口口口 |③---|

口②口∨
口口口②
口口口口
口口口口

口口口口
口口口③
口③口口
口口口口
23
口口口口 |①---|
口口口口 |----|
口口口口 |----|
口①<口 |②-③④|

口口③口
口④口口
口口口口
口②口口
24
口口口口 |①---|
口口口口 |②---|
口>①口 |③---|
口口口口 |④---|

口口口口
④口口口
③口④口
②口口口
25
①③④② |①---|
口⑤⑥口 |②---|
口⑦⑧口 |③④⑤⑥|
口口口口 |⑦⑧--|
26
口口口口 |①---|
①口口① |----|
口口口口 |--②-|
口口口口 |③-④-|

口口口口
④口口口
口口口③
②口口口
27
口口口口 |①---|
口口口口 |----|
①―<口 |②-③-|
口口口口 |④-⑤-|

口口口⑤
④口口口
②口口③
口口口口
28
口口①口 |①---|
口口|口 |②---|
口口∧口 |③---|
口口口口 |④---|

口口③口
口②口口
③口口口
口④口口
29
口口口口 |①---|
①②①② |--②-|
②①②① |----|
口口口口 |----|
30
④③口口 |①---|
①②口口 |----|
口口②① |--②-|
口口③④ |③-④-|
31
口口口口 |①---|
①④④口 |----|
口③③① |--②-|
口②②口 |③-④-|
32
口口口口 |①---|
①口口① |----|
∧口口∧ |----|
口口口口 |②---|

口口口口
②口口②
口口口口
口口口口
33
①口口口 |①---|
|口口口 |②---|
|口口口 |③④⑤⑥|
∧口口口 |----|

②口口②
口口口|
口口口|
口口口∧

口口口③
口口口口
口③④口
口⑤⑥口
34
口口口口 |①---|
①口口① |----|
口口口口 |--②-|
口口口口 |③-④-|

口口口口
口口口④
③口口口
口口口②
35
口口口口 |①---|
口口口口 |----|
口>―① |②-③-|
口口口口 |④-⑤-|

⑤口口口
口口口④
③口口②
口口口口
36
口①口口 |①---|
口|口口 |②---|
口∧口口 |③---|
口口口口 |④---|

口③口口
口口②口
口口口③
口口④口
37
口口口口 |①---|
②①②① |--②-|
①②①② |----|
口口口口 |----|
38
口口③④ |①---|
口口②① |----|
①②口口 |--②-|
④③口口 |③-④-|
39
口口口口 |①---|
口④④① |----|
①③③口 |--②-|
口②②口 |③-④-|
40
①①< |①---|
口口口口 |--②-|
口口口口 |----|
口口口口 |--③④|

口②②口
口口④口
口③口口
口口口口
41
口口>① |①---|
口口口口 |②---|
口口口口 |③---|
口口口口 |--④⑤|

口口口③
②⑤口口
③口④口
口口口口
42
①<口口 |①---|
口口口口 |②---|
口口口口 |③---|
口口口口 |--④⑤|

③口口口
口口⑤②
口④口③
口口口口
43
口①口口 |①---|
口∧口口 |②-③-|
口口口口 |----|
口口口口 |----|

口②③口
口口口③
③口口口
口③口口
44
口口口口 |①---|
①口口口 |--②-|
|口口口 |③---|
∧口口口 |--④-|

口口口∨
②口口|
口口口③
口口口口

口口口口
口口口口
口口口④
口口口口
45
①口②口 |①-②-|
口③口④ |③-④-|
⑤口⑥口 |⑤-⑥-|
口口∧口 |--⑦-|

口口口口
口口口口
口口⑦口
⑦<口口
46
口⑤口⑥ |----|
口③口④ |①-②-|
口口口② |③-④-|
①口口口 |⑤-⑥-|
47
①口②口 |①-②-|
口⑤―< |③-④-|
③口④口 |⑤---|
口口口口 |⑥---|

口口口口
口⑥口口
口口口口
口>―⑥
48
口①∨③ |①---|
口口④口 |②---|
口②口口 |③-④-|
口口口① |--⑤-|

⑤口口口
口口⑤口
口口口口
口口口口
49
口口口口 |①-②-|
口①口口 |-③--|
口口②口 |④-⑤-|
口口∧口 |--⑥-|

口口口口
③口口④
⑤③口
口口口口

口口口口
口口口口
口⑥口⑥
口口口口
50
口口口口 |①---|
口口口口 |②---|
口口口口 |③---|
口口①< |④---|

口口口口
口口口口
口口口口
②<②口

口口口口
④口口③
口口口口
③口口口
51
口口口∨ |①-②-|
口口口| |③-④-|
口口口| |⑤-⑥-|
口口口① |⑦-⑧-|

口口∨口
口口|口
口口|口
口口③②

口∨口口
口|口口
口|口口
口⑤④口

∨口口口
|口口口
|口口口
⑦⑥口口

口口口口
口口口口
口口口口
⑧口口口
52
口口口口 |①---|
口口口① |--②-|
口口口∧ |③-④-|
口口口口 |--⑤-|

口口口口
④口②
口③口口
口口口口

口口口⑤
口⑤口口
口口口口
口口口口
53
①口①口 |①---|
②口②口 |②---|
③口③⑤ |③---|
口④口口 |④-⑤-|
54
口>―② |①-②-|
口①口口 |--③-|
口口口口 |④-⑤-|
口口口口 |--⑥-|

口口口③
③口口口
口口④口
⑤―<口

口口口口
口口口⑥
口口口口
⑥口口口
55
口口口口 |①-②-|
口①口口 |③-④-|
口③口② |----|
口>―④ |⑤---|

口口口口
口口口口
口口口口
口口口⑤
56
①口口口 |①---|
∧口口口 |②---|
①口口口 |③---|
∧口口口 |④---|

②口口③
口口口∧
②口口③
口口口∧

口口口④
口口口口
口口口④
口口口口
57
∨口口口 |①-②-|
|口口口 |③-④-|
|口口口 |⑤-⑥-|
①口口口 |⑦-⑧-|

口∨口口
口|口口
口③口口
②口口口

口口口口
口口⑤口
口④|口
口口∧口

口口口⑦
口口⑥|
口口口|
口口口∧

口口口⑧
口口口口
口口口口
口口口口
58
①口口口 |①---|
∧①口口 |----|
①∧口口 |----|
∧口口口 |----|
59
口口口口 |①---|
口口口口 |----|
口口①< |----|
口①<口 |②---|

②口口口
口②口口
②口②口
口②口口
60
口②口口 |①---|
口口口④ |②---|
口①⑤③ |③-④-|
口口口口 |--⑤-|
61
口口口口 |①---|
⑤③①口 |②-③-|
④②口口 |--④-|
口口口口 |⑤---|
62
⑤①口① |①-②-|
口⑥②∧ |③-④-|
⑦③口① |--⑤-|
口口④∧ |⑥-⑦-|
63
口口口④ |--①-|
①⑦⑥口 |②-③-|
口②口④ |④-⑤-|
③④⑤口 |⑥-⑦-|
64
口口②口 |①---|
④口口口 |②---|
③⑤①口 |③-④-|
口口口口 |--⑤-|
65
口口口⑥ |①---|
口①③⑤ |②-③-|
口口②④ |--④-|
口口口口 |⑤-⑥-|
66
①口①口 |①-②-|
∧②∨口 |③---|
①口③口 |----|
∧口口口 |④---|

口口口口
口口口口
口口④口
口口口口
67
④口口① |①-②-|
口口②∨ |③---|
④口口③ |④---|
口口口口 |⑤---|

口口口口
口口口口
口口口⑤
口口口口
68
口②口口 |①---|
口口④口 |②---|
口①③口 |③-④-|
口口口口 |--⑤-|

口口口口
口口口口
口⑤口口
口口口口
69
口口口口 |①---|
③①⑤口 |②-③-|
②④口口 |----|
口口口口 |--④⑤|
70
口口>① |①---|
口口口口 |②---|
口口口口 |③---|
口口口口 |④-⑤⑥|

口口口③
②⑥口口
③④⑤口
口口口口
71
①<口口 |①---|
口口口口 |②---|
口口口口 |③---|
口口口口 |④-⑤⑥|

③口口口
口口⑥②
口⑤④③
口口口口
72
口口>① |①---|
口口口口 |②---|
口口口口 |③---|
口口口口 |④-⑤⑥|

口口口③
②⑥口口
③④⑤口
口口口口
73
口口①口 |①---|
口口∧口 |②-③-|
口口口口 |----|
口口口口 |----|

口③②口
③口口口
口口口③
口口③口
74
口口口口 |①---|
口口口口 |②---|
口口口口 |③-④-|
①①―< |--⑤-|

―②口
口口口口
口口口口
口②口口

口口③口
―④口
口③口口
口口口口

口口口口
口口⑤口
口口⑤口
⑤口口口
75
∨口口口 |①---|
|口口口 |②-③-|
①口口口 |--④-|
口口①口 |⑤-⑥-|

口口口∨
口口口|
②③口③
口口口②

口口口口
口⑥口口
口口⑤④
口④口口
76
口口口口 |①---|
∨口口口 |②---|
|口口口 |③-④-|
①口①口 |--⑤-|

口>―②
口口口口
口口口口
②口口口

口口口③
④―<口
口③口口
口口口口

口口口口
⑤口口⑤
口口口口
口口口⑤
77
―①口 |①---|
口口口口 |②---|
口口①口 |③④⑤⑥|
口口口口 |⑦⑧⑨⑩|

③口②⑥
⑨⑦④⑩
⑤口口⑧
口口口口
78
口口口口 |①---|
口口口口 |②---|
口口口口 |③-④-|
①①―< |--⑤-|

―②口
口口口口
口口口口
口②口口

口口③口
―④口
口③口口
口口口口

口口口口
口口⑤口
口口⑤口
⑤口口口
79
∨口口口 |①---|
|口口口 |②-③-|
①口口口 |--④-|
口口①口 |⑤-⑥-|

口口口∨
口口口|
②③口③
口口口②

口口口口
口⑥口口
口口⑤④
口④口口
80
口口口口 |①---|
∨口口口 |②---|
|口口口 |③-④-|
①口①口 |--⑤-|

口>―②
口口口口
口口口口
②口口口

口口口③
④―<口
口③口口
口口口口

口口口口
⑤口口⑤
口口口口
口口口⑤
81
口>①口 |①---|
口口口口 |--②-|
口口①口 |----|
口口口口 |----|

②口②口
|②口口
∧|口口
口∧口口
82
口口口口 |----|
口口口口 |----|
口口口口 |----|
口口口口 |----|
83
①口口① |①-②-|
口①②② |③-④-|
口③③③ |----|
④④④④ |----|
最終更新:2019年11月08日 01:25