アットウィキロゴ
箱庭のエチュード
Blanc Bunny Bandit

BASIC

Level: 3
BPM: 138
Notes: 212

1
口口口口 |----|
口口口口 |----|
口口口口 |----|
口口口口 |----|
2
口①①口 |①---|
口②②口 |--②-|
口③③口 |----|
口口口口 |③---|
3
①口口① |--①-|
口口口口 |----|
口口口口 |----|
口口口口 |----|
4
口口口口 |①---|
①口口口 |----|
口②②口 |②---|
口口口口 |----|
5
口口口口 |①---|
口口口① |----|
口②②口 |②---|
口口口口 |----|
6
口口口口 |①---|
①口口口 |----|
口②②口 |②---|
口口口口 |----|
7
口口口口 |①---|
口口口① |----|
口②②口 |②---|
口口口口 |----|
8
口②②口 |①---|
①口口口 |----|
口口口口 |②---|
口口口口 |----|
9
口②②口 |①---|
口口口① |----|
口口口口 |②---|
口口口口 |----|
10
口②②口 |①---|
①口口口 |----|
口口口口 |②---|
口口口口 |----|
11
口②②口 |①---|
口口口① |----|
口口口口 |②---|
口口口口 |----|
12
①②口口 |①---|
口口口口 |----|
口口口口 |②---|
口口口口 |----|
13
口口①② |①---|
口口口口 |----|
口口口口 |②---|
口口口口 |----|
14
口口口口 |①---|
口①①口 |----|
口口口口 |----|
口口口口 |----|
15
口口口口 |①---|
口口口口 |----|
口①①口 |----|
口口口口 |----|
16
口口口口 |①---|
口口②① |----|
口口口口 |②---|
口口口口 |----|
17
口口口口 |①---|
②①口口 |----|
口口口口 |②---|
口口口口 |----|
18
口口口口 |①---|
口口口口 |----|
口①①口 |----|
口口口口 |----|
19
口口口口 |①---|
口①①口 |----|
口口口口 |----|
口口口口 |----|
20
口口口口 |①---|
口口口口 |----|
①②口口 |②---|
口口口口 |----|
21
口口口口 |①---|
口口口口 |----|
口口①② |②---|
口口口口 |----|
22
口口口口 |①---|
口①①口 |----|
口口口口 |----|
口口口口 |----|
23
口口口口 |①---|
口口口口 |----|
口①①口 |----|
口口口口 |----|
24
口口口口 |①---|
口口口口 |----|
口口口口 |②---|
口口②① |----|
25
口口口口 |①---|
口口口口 |----|
口口口口 |②---|
②①口口 |----|
26
口口口口 |①---|
口口口口 |----|
口①①口 |----|
口口口口 |----|
27
口口口口 |①---|
口①①口 |----|
口口口口 |----|
口口口口 |----|
28
口口口口 |①---|
口口口口 |----|
口口口口 |②---|
口①②口 |----|
29
口口口口 |①---|
口口口口 |----|
口①②口 |②---|
口口口口 |----|
30
口口口口 |①---|
口①②口 |----|
口口口口 |②---|
口口口口 |----|
31
口①②口 |①---|
口口口口 |----|
口口口口 |②---|
口口口口 |----|
32
①口口② |①---|
口口口口 |----|
口口口口 |②---|
口口口口 |----|
33
口口口口 |①---|
①口口② |----|
口口口口 |②---|
口口口口 |----|
34
口口口口 |①---|
口口口口 |----|
①口口② |②---|
口口口口 |----|
35
口口口口 |①---|
口①①口 |----|
口口口口 |----|
口口口口 |----|
36
口①口口 |①---|
口②口口 |②---|
口③口口 |③---|
口④口口 |④---|
37
口口④口 |①---|
口口③口 |②---|
口口②口 |③---|
口口①口 |④---|
38
口①口口 |①---|
口②口口 |②---|
口③口口 |③---|
口④口口 |④---|
39
口口④口 |①---|
口口③口 |②---|
口口②口 |③---|
口口①口 |④---|
40
①口口① |①---|
②口口② |----|
口口口口 |②---|
口口口口 |----|
41
口口口口 |①---|
口口口口 |----|
①口口① |②---|
②口口② |----|
42
口口口口 |①---|
口口口口 |----|
口口口口 |----|
口①①口 |----|
43
口口口口 |①---|
①①①① |----|
口口口口 |----|
口口口口 |----|
44
口①口口 |①---|
口②口口 |②---|
口③口口 |③---|
口④口口 |④---|
45
口口④口 |①---|
口口③口 |②---|
口口②口 |③---|
口口①口 |④---|
46
口①口口 |①---|
口②口口 |②---|
口③口口 |③---|
口④口口 |④---|
47
口口④口 |①---|
口口③口 |②---|
口口②口 |③---|
口口①口 |④---|
48
①口口① |①---|
②口口② |----|
口口口口 |②---|
口口口口 |----|
49
口口口口 |①--②|
口②②口 |----|
口①①口 |----|
口口口口 |----|
50
口①①口 |①---|
口②②口 |--②-|
口③③口 |----|
口口口口 |③---|
51
①口口① |--①-|
口口口口 |----|
口口口口 |----|
口口口口 |----|
52
口口①口 |①---|
口口②口 |②---|
口口③口 |③---|
口口④口 |④---|
53
口④口口 |①---|
口③口口 |②---|
口②口口 |③---|
口①口口 |④---|
54
口口①口 |①---|
口口②口 |②---|
口口③口 |③---|
口口④口 |④---|
55
口④口口 |①---|
口③口口 |②---|
口②口口 |③---|
口①口口 |④---|
56
①口口① |①---|
②口口② |----|
口口口口 |②---|
口口口口 |----|
57
口口口口 |①---|
口口口口 |----|
①口口① |②---|
②口口② |----|
58
口口口口 |①---|
口口口口 |----|
口口口口 |----|
口①①口 |----|
59
口口口口 |①---|
①①①① |----|
口口口口 |----|
口口口口 |----|
60
口口①口 |①---|
口口②口 |②---|
口口③口 |③---|
口口④口 |④---|
61
口④口口 |①---|
口③口口 |②---|
口②口口 |③---|
口①口口 |④---|
62
口口①口 |①---|
口口②口 |②---|
口口③口 |③---|
口口④口 |④---|
63
口④口口 |①---|
口③口口 |②---|
口②口口 |③---|
口①口口 |④---|
64
①口口① |①---|
②口口② |----|
口口口口 |②---|
口口口口 |----|
65
口口口口 |①--②|
口②②口 |----|
口①①口 |----|
口口口口 |----|
66
口①①口 |①---|
口②②口 |--②-|
口③③口 |----|
口口口口 |③---|
67
③口口③ |①---|
②口口② |--②-|
①口口① |----|
口口口口 |③---|
68
口口口口 |--①-|
口①①口 |----|
口①①口 |----|
口口口口 |----|

accuracy: 99.5%
最終更新:2024年09月08日 16:57