アットウィキロゴ
箱庭のエチュード
Blanc Bunny Bandit

ADVANCED

Level: 6
BPM: 138
Notes: 430

1
口口口口 |----|
口口口口 |----|
口口口口 |----|
口口口口 |----|
2
③⑤⑤④ |①--②|
①口口② |--③-|
口④③口 |-④--|
口②①口 |⑤---|
3
口口口口 |--①-|
口口口口 |----|
口口口口 |----|
口①①口 |----|
4
口口口④ |①--②|
口②口口 |--③-|
①口③口 |④---|
口口口口 |----|
5
④口口口 |①--②|
口口②口 |--③-|
口③⑤① |④--⑤|
口⑥口口 |--⑥-|
6
④口口口 |①--②|
口口③口 |--③-|
口②口口 |④---|
口口①口 |----|
7
⑦①②⑧ |①-②-|
⑤③④⑥ |③-④-|
口口口口 |⑤-⑥-|
口口口口 |⑦-⑧-|
8
口口口④ |①--②|
口②口口 |--③-|
①口③口 |④---|
口口口口 |----|
9
④口口口 |①--②|
口口②口 |--③-|
口③⑤① |④--⑤|
口⑥口口 |--⑥-|
10
④口口口 |①--②|
口口③口 |--③-|
口②口口 |④---|
口口①口 |----|
11
口口口口 |----|
口口口口 |----|
口口口口 |----|
口①①口 |--①-|
12
⑤④口口 |①--②|
口口①② |--③-|
口③③口 |④--⑤|
口⑥⑥口 |--⑥-|
13
⑤④口口 |①--②|
⑥口①② |--③-|
口③③口 |④--⑤|
口口口口 |--⑥-|
14
口口口① |①---|
口口②口 |②---|
口③口口 |③---|
④口口口 |④---|
15
①口口口 |①---|
口②口口 |②---|
口口③口 |③---|
口⑤⑤④ |④-⑤-|
16
⑤④口口 |①--②|
口口①② |--③-|
口③③口 |④--⑤|
口⑥⑥口 |--⑥-|
17
⑤④口口 |①--②|
⑥口①② |--③-|
口③③口 |④--⑤|
口口口口 |--⑥-|
18
口口口① |①---|
口口②口 |②---|
口③口口 |③---|
④口口口 |④---|
19
①口口口 |①---|
口②口口 |②---|
⑤口③⑤ |③---|
口口口④ |④-⑤-|
20
②口口⑤ |①--②|
①口口④ |--③-|
⑥口口⑥ |④--⑤|
口③③口 |--⑥-|
21
②口⑥⑤ |①--②|
①口口④ |--③-|
口口口口 |④--⑤|
口③③口 |--⑥-|
22
①口口口 |①---|
①②口口 |②---|
口口③口 |③---|
口口口④ |④---|
23
口口口① |①---|
口口②① |②---|
⑤③口⑤ |③---|
④口口口 |④-⑤-|
24
⑤口口② |①--②|
④口口① |--③-|
⑥口口⑥ |④--⑤|
口③③口 |--⑥-|
25
⑤⑥口② |①--②|
④口口① |--③-|
口口口口 |④--⑤|
口③③口 |--⑥-|
26
口口口① |①---|
口口②① |②---|
口③口口 |③---|
④口口口 |④---|
27
①口口口 |①---|
①②口口 |②---|
口口③口 |③---|
口口口④ |④---|
28
①②③口 |①--②|
口口⑥口 |--③-|
口口口口 |④--⑤|
口④⑤口 |--⑥-|
29
口③②① |①--②|
口口口口 |--③-|
口口口口 |④--⑤|
口⑤④口 |----|
30
口口口口 |①--②|
口①②口 |--③-|
口②①口
口③口口

口口口口
⑤口口⑤
口⑥口口 |④--⑤|
口口④口 |--⑥-|
31
③口口② |①--②|
口口口口 |--③-|
口④①口 |----|
口口口口 |--④-|
32
③口③口 |①--②|
④口④② |--③-|
口口①口 |--④-|
口口⑤口 |--⑤-|
33
口③口③ |①--②|
口④口④ |--③-|
②⑤口⑤ |--④-|
口①口口 |--⑤-|
34
口口口口 |①--②|
口③口口 |--③-|
口④②口 |----|
口①口口 |--④-|
35
②口口② |①--②|
口口口口 |----|
口口①口 |----|
口口口口 |----|
36
口②口口 |①---|
②口口口 |--②-|
口口口口
口①①口

口口③口
口口口③
口④口口 |③--④|
口口⑤口 |--⑤-|
37
①②③① |①---|
②口口③ |--②-|
口口④口 |③--④|
口⑤口口 |--⑤-|
38
①口口① |①---|
口②口口 |--②-|
口口口口
口口口口

口口口⑤
⑤口口口
口口③口 |③--④|
口④口口 |--⑤-|
39
①口口口 |①---|
口口口① |--②③|
口②③口 |----|
口口口口 |----|
40
口口口口 |①--②|
口①口口 |--③-|
口口②口
口③口口

口口口④
口⑤口④
口口口口 |--④-|
口口口口 |--⑤-|
41
④口口口 |①--②|
④口①口 |--③-|
口②⑤口 |--④-|
口口③口 |--⑤-|
42
口口口① |①---|
口口口① |----|
口②③口 |----|
口口口口 |--②③|
43
口口口口 |----|
口口口口 |----|
口口口口 |----|
口口口口 |----|
44
②口口口 |①---|
口口口口 |--②-|
②口口口
口①①口

口口口③
口口口口
口口④③ |③--④|
口⑤口口 |--⑤-|
45
③口口② |①---|
口①①口 |--②-|
③④口② |③--④|
口口⑤口 |--⑤-|
46
口②③口 |①---|
①口口① |--②-|
口④口口 |③--④|
口口⑤口 |--⑤-|
47
①口口① |①---|
口③②口 |--②③|
口口口口 |----|
口口口口 |----|
48
①口口口 |①--②|
口口口② |--③-|
③口口⑤ |--④-|
口④④口 |--⑤-|
49
②②②② |①--②|
①①①① |----|
口口口口
口口口口

口口口口
口口⑤口
口④口口 |③--④|
③口口口 |--⑤-|
50
③⑤⑤④ |①--②|
①口口② |--③-|
口④③口 |-④--|
口②①口 |⑤---|
51
口口口口 |--①-|
口②③口 |----|
口④口口 |--②③|
口①①口 |④---|
52
口口②口 |①---|
口口口② |--②-|
口口口口
口①①口

口③口口
③口口口
口口④口 |③--④|
口⑤口口 |--⑤-|
53
①③②① |①---|
③口口② |--②-|
口④口口 |③--④|
口口⑤口 |--⑤-|
54
①口口① |①---|
口口②口 |--②-|
口口口口
口口口口

⑤口口口
口口口⑤
口③口口 |③--④|
口④④口 |--⑤-|
55
口口口① |①---|
①②②口 |--②③|
口③③口 |----|
口口口口 |----|
56
口口口口 |①--②|
口口①口 |--③-|
口②口口
口③③口

④④口口
④口⑤口
口口口口 |--④-|
口口口口 |--⑤-|
57
口口④④ |①--②|
口①口④ |--③-|
口⑤②口 |--④-|
口③③口 |--⑤-|
58
①口口口 |①--②|
①②口口 |--③-|
③口口口
口口口口

口口口口
口⑥⑦口
口⑥⑦⑤ |④--⑤|
口口④口 |--⑥⑦|
59
①口口① |----|
②口口② |----|
口口口口 |--①-|
口口口口 |--②-|
60
口口口② |①---|
口口口口 |--②-|
口口口②
口①①口

③口口口
口口口口
③④口口 |③--④|
口口⑤口 |--⑤-|
61
②口口③ |①---|
口①①口 |--②-|
②口④③ |③--④|
口⑤口口 |--⑤-|
62
口③②口 |①---|
①②③① |--②-|
口口④口 |③--④|
口⑤口口 |--⑤-|
63
①口口① |①---|
口③②口 |--②③|
口③②口 |----|
口口口口 |----|
64
口口口① |①--②|
②口口口 |--③-|
⑤口口③ |--④-|
口④④口 |--⑤-|
65
②②②② |①--②|
①①①① |----|
口口口口
口口口口

口口口口
口口⑤口
口④口口 |③--④|
③口口口 |--⑤-|
66
③⑤⑤④ |①--②|
①口口② |--③-|
口④③口 |-④--|
口②①口 |⑤---|
67
①口口② |①--②|
③口口④ |--③-|
⑤②①⑤ |-④--|
口④③口 |⑤---|
68
①①①① |--①-|
口口口口 |----|
口口口口 |----|
口口口口 |----|

accuracy: 99.5%
最終更新:2024年09月08日 16:57