アットウィキロゴ
箱庭のエチュード
Blanc Bunny Bandit

EXTREME

Level: 8
BPM: 138
Notes: 773

1
口口口口 |----|
口口口口 |----|
口口口口 |----|
口口口口 |----|
2
①②①② |①--②|
口③口③ |--③-|
①③②口
口口口口

⑤口口口
④口④口
口口口⑤ |-④--|
口口④⑤ |⑤---|
3
口口②口 |①-②-|
口③口② |----|
②口①口 |----|
口②口口 |③---|
4
③②口① |①--②|
②③口① |--③-|
口④④口 |④---|
口口⑤口 |⑤---|
5
口口②③ |①--②|
①口③② |--③-|
①口口口
口口口口

口⑥口口
⑤口口口
口④④口 |④--⑤|
口口口口 |--⑥-|
6
①④④① |①--②|
口口口口 |--③-|
③⑤口口 |④---|
口②②③ |⑤---|
7
③口口④ |①-②-|
口口②口 |③-④-|
口口口口
口①口口

口口口口
口口口口
⑧⑦⑥⑤ |⑤⑥⑦⑧|
⑨⑩⑪⑫ |⑨⑩⑪⑫|
8
③②口① |①--②|
②③口① |--③-|
口④④口 |④---|
口口⑤口 |⑤---|
9
口口②③ |①--②|
①口③② |--③-|
①口口口
口口口口

口⑥口口
⑤口口口
口④④口 |④--⑤|
口口口口 |--⑥-|
10
①④④① |①--②|
口口口口 |--③-|
口⑤口③ |④---|
③②②口 |⑤---|
11
口口②③ |①--②|
①口口口 |③-④-|
口④口口
口口口口

口口⑦口
⑥口口⑤
⑥口口⑤ |--⑤-|
口口口口 |-⑥⑦-|
12
口⑥口口 |①--②|
④①②⑤ |--③-|
⑤②①④ |④--⑤|
口③口口 |--⑥-|
13
口④⑤口 |①--②|
④②①⑤ |--③-|
⑥①②口 |④--⑤|
口⑥③口 |--⑥-|
14
⑩⑪⑫⑬ |①②③④|
口⑤④口 |⑤--⑥|
口③②① |⑦⑧⑨⑩|
⑥⑦⑧⑨ |⑪⑫⑬-|
15
⑬⑫⑪⑩ |①②③④|
口⑤④口 |⑤--⑥|
口③②① |⑦⑧⑨⑩|
⑨⑧⑦⑥ |⑪⑫⑬-|
16
口口⑥口 |①--②|
⑤①②④ |--③-|
④②①⑤ |④--⑤|
口口③口 |--⑥-|
17
口⑤④口 |①--②|
⑤①②④ |--③-|
口②①⑥ |④--⑤|
口③⑥口 |--⑥-|
18
⑬⑫⑪⑩ |①②③④|
口④⑤口 |⑤--⑥|
①②③口 |⑦⑧⑨⑩|
⑨⑧⑦⑥ |⑪⑫⑬-|
19
⑩⑪⑫⑬ |①②③④|
口④⑤口 |⑤--⑥|
①②③口 |⑦⑧⑨⑩|
⑥⑦⑧⑨ |⑪⑫⑬-|
20
口⑥口口 |①--②|
④①②⑤ |--③-|
⑤②①④ |④--⑤|
口③口口 |--⑥-|
21
口④⑤口 |①--②|
④②①⑤ |--③-|
⑥①②口 |④--⑤|
口⑥③口 |--⑥-|
22
⑩口口⑥ |①②③④|
⑪④⑤⑦ |⑤--⑥|
⑫②③⑧ |⑦⑧⑨⑩|
⑬口①⑨ |⑪⑫⑬-|
23
⑥口口⑩ |①②③④|
⑦⑤④⑪ |⑤--⑥|
⑧③②⑫ |⑦⑧⑨⑩|
⑨①口⑬ |⑪⑫⑬-|
24
口口⑥口 |①--②|
⑤①②④ |--③-|
④②①⑤ |④--⑤|
口口③口 |--⑥-|
25
口⑤④口 |①--②|
⑤①②④ |--③-|
口②①⑥ |④--⑤|
口③⑥口 |--⑥-|
26
⑥口口⑩ |①②③④|
⑦⑤④⑪ |⑤--⑥|
⑧③②⑫ |⑦⑧⑨⑩|
⑨①口⑬ |⑪⑫⑬-|
27
⑩口口⑥ |①②③④|
⑪④⑤⑦ |⑤--⑥|
⑫②③⑧ |⑦⑧⑨⑩|
⑬口①⑨ |⑪⑫⑬-|
28
③②②③ |①--②|
③①①③ |--③-|
口②②口
口口口口

口口⑥口
口⑤口口
口口口口 |④--⑤|
口口④口 |--⑥-|
29
④口口口 |①--②|
口⑤⑤② |--③-|
口①①口 |④--⑤|
口③口口 |----|
30
口③①① |①--②|
①口口口 |--③-|
①②②口
口口③口

口口⑤⑤
口口口口
口⑥口④ |④--⑤|
口口口口 |--⑥-|
31
②口口口 |①--②|
口①口口 |--③-|
口口口口
口③③口

口口口口
口④⑥⑤
口口口口 |---④|
口口口口 |--⑤⑥|
32
①①口③ |①--②|
口口口口 |--③-|
口②口③
口②口口

④口⑤口
口口口口
④⑤口口 |--④-|
口口口口 |--⑤-|
33
口①⑦⑥ |①--②|
口②⑤② |--③-|
口口①④ |④-⑤-|
口口③口 |⑥-⑦-|
34
③口口③ |①--②|
③口口③ |--③-|
①口①口
口②口②

口口口口
口⑤口口
口口⑤④ |----|
口口口口 |④-⑤-|
35
①②①口 |①--②|
①口①② |----|
②口口口
口口②口

口口口口
④口口口
口⑤⑥口 |③-④-|
口③口口 |⑤⑥--|
36
①口②① |①--②|
口口口口 |--③-|
①口口①
口②③口

⑤口口⑥
⑤口④④
口④⑤口 |④--⑤|
口口口口 |--⑥-|
37
③⑥③⑤ |①---|
④①口⑤ |②-③-|
④②③④ |④--⑤|
口①⑥① |--⑥-|
38
口口①口 |①--②|
③口口③ |--③-|
口②口口
口①口口

④口⑤口
口④口口
口口⑥④ |④--⑤|
口⑤口口 |--⑥-|
39
口口④③ |①--②|
①口①口 |--③④|
①口口口
口口②口

⑤⑥口口
⑥⑤口口
口口口口 |---⑤|
口口口口 |--⑥-|
40
③口②① |①--②|
口③口口 |--③-|
口口③口
①②口③

口⑤⑦口
口口④口
口⑤口⑦ |④-⑤-|
口口⑥口 |⑥-⑦-|
41
②口口② |①--②|
①口口口 |--③-|
口③口口
口①口口

口⑥⑦口
口口⑤口
④口口口 |④-⑤-|
口⑦⑤口 |⑥-⑦-|
42
口③口口 |①--②|
①口口口 |--③-|
口②①①
口口口口

④口口口
口⑤⑦口
⑥口⑥口 |④--⑤|
口口口口 |--⑥⑦|
43
口①①口 |①--②|
口口口口 |--③④|
口④口口
口③②口

口⑥口⑥
⑥⑤⑥⑤
口口口口 |⑤-⑥-|
口口口口 |----|
44
①口①口 |①--②|
口②口口 |--③-|
①口①③
口口口口

口口⑤口
④⑥④⑤
口⑤口口 |④--⑤|
④口口口 |--⑥-|
45
①口口① |①--②|
③口口口 |--③-|
①口②①
口口口口

⑤口④口
口口④⑤
⑤口口口 |④--⑤|
口④⑥口 |--⑥-|
46
③口②口 |①--②|
口③口口 |--③-|
口口③①
①口口①

口口口④
口口④⑥
⑥④口⑥ |④--⑤|
口口⑤口 |--⑥-|
47
②口①口 |①--②|
①④③⑦ |--③④|
⑥④③口 |--⑤-|
口①⑤口 |⑥-⑦-|
48
②口口① |①--②|
口口口口 |--③-|
口②①口
口③③口

⑦口口口
口⑤口④
口口⑥口 |④-⑤-|
口口口口 |⑥-⑦-|
49
口口②② |①--②|
①口①② |----|
②①口①
②②口口

口③口口
口口④口
口⑤口口 |③--④|
口口口口 |--⑤-|
50
口②②口 |①--②|
①①口③ |--③-|
③口②①
口③口口

④口口口
⑤口④口
口口口⑤ |-④--|
口口④⑤ |⑤---|
51
口②②① |①-②-|
口②⑤② |----|
②②④口 |--③④|
②②③口 |⑤---|
52
①口②① |①--②|
口口口口 |--③-|
①口口①
口②③口

⑤口口⑥
⑤口④④
口④⑤口 |④--⑤|
口口口口 |--⑥-|
53
③⑥③⑤ |①---|
④①口⑤ |②-③-|
④②③④ |④--⑤|
口①⑥① |--⑥-|
54
口口①口 |①--②|
③口口③ |--③-|
口②口口
口①口口

④口⑤口
口④口口
口口⑥④ |④--⑤|
口⑤口口 |--⑥-|
55
口口④③ |①--②|
①口①口 |--③④|
①口口口
口口②口

⑤⑥口口
⑥⑤口口
口口口口 |---⑤|
口口口口 |--⑥-|
56
③口②① |①--②|
口③口口 |--③-|
口口③口
①②口③

口⑤⑦口
口口④口
口⑤口⑦ |④-⑤-|
口口⑥口 |⑥-⑦-|
57
②口口② |①--②|
①口口口 |--③-|
口③口口
口①口口

口⑥⑦口
口口⑤口
④口口口 |④-⑤-|
口⑦⑤口 |⑥-⑦-|
58
口③口口 |①--②|
①口口口 |--③-|
口②①①
口口口口

④口口口
口⑤⑦口
⑥口⑥口 |④--⑤|
口口口口 |--⑥⑦|
59
口①①口 |①--②|
口口口口 |--③④|
口④口口
口③②口

口⑥口⑥
⑥⑤⑥⑤
口口口口 |⑤-⑥-|
口口⑦口 |--⑦-|
60
①口①口 |①--②|
口②口口 |--③-|
①口①③
口口口口

口口⑤口
④⑥④⑤
口⑤口口 |④--⑤|
④口口口 |--⑥-|
61
①口口① |①--②|
③口口口 |--③-|
①口②①
口口口口

⑤口④口
口口④⑤
⑤口口口 |④--⑤|
口④⑥口 |--⑥-|
62
③口②口 |①--②|
口③口口 |--③-|
口口③①
①口口①

口口口④
口口④⑥
⑥④口⑥ |④--⑤|
口口⑤口 |--⑥-|
63
②口①口 |①--②|
①④③口 |--③④|
口④③口
口①口口

口口口口
⑤口口⑥
⑦口口口 |--⑤-|
口口口口 |⑥-⑦-|
64
②口③① |①--②|
口口口口 |--③-|
口②①口
口口口口

口口口⑦
④口⑤口
口口口口 |④-⑤-|
口⑥口口 |⑥-⑦-|
65
②②口口 |①--②|
②①⑤① |----|
①④①② |③--④|
口③②② |--⑤-|
66
①②①② |①--②|
③口口口 |--③-|
①口②③
口③口口

⑤口⑤口
口⑤④⑤
口④口口 |-④--|
口口④口 |⑤---|
67
口③口② |①--②|
①口口③ |--③-|
②③①口
①②口口

④口口口
⑤口⑤口
口口⑤④ |-④--|
口口⑤④ |⑤---|
68
口②②① |①-②-|
口②口② |----|
②②口口 |----|
②②口口 |----|

accuracy: 99.5%
最終更新:2024年09月08日 16:57