アットウィキロゴ
toy boxer
BEMANI Sound Team "S-C-U & SYUNN"

BASIC

Level: 8
BPM: 190
Notes: 571

1
口口口口 |----|
口口口口 |----|
口口口口 |----|
口口口口 |----|
2
口③④口 |--①-|
口口口口 |②-③-|
口口口口 |④---|
⑤①②口 |--⑤-|
3
②口口③ |①-②-|
⑥④口口 |③---|
口口⑤口 |④-⑤-|
口口口① |⑥---|
4
口④③口 |--①-|
口口口口 |②-③-|
口口口口 |④---|
口②①⑤ |--⑤-|
5
③⑤④② |①-②-|
⑦口口⑥ |③-④-|
口口口⑧ |⑤-⑥-|
①口口口 |⑦-⑧-|
6
口④口口 |--①-|
口口③口 |②-③-|
口①口⑤ |④---|
口口②口 |--⑤-|
7
口口④③ |①-②-|
②⑤口口 |③-④-|
口⑦⑥口 |⑤-⑥-|
①口⑧口 |⑦-⑧-|
8
口口口③ |①---|
②口口口 |--②-|
口口口口 |----|
①口口口 |③---|
9
口口口口 |--①-|
口口③口 |----|
②口口① |②---|
口口口口 |③---|
10
口①口口 |①-②-|
口③⑦③ |③-④-|
口⑤②⑤ |⑤---|
口⑥④口 |⑥-⑦-|
11
口①④① |①-②-|
口③口③ |③---|
⑤口②⑥ |④-⑤-|
口口口口 |⑥---|
12
①口口口 |①-②-|
③⑦③口 |③-④-|
⑤②⑤口 |⑤---|
⑥④口口 |⑥-⑦-|
13
①口①口 |①-②-|
③口③④ |③-④-|
⑤②口⑥ |⑤-⑥-|
⑦口口⑧ |⑦-⑧-|
14
口口口口 |--①-|
口②⑤口 |②-③-|
口④①口 |④---|
口口③口 |--⑤-|
15
口①口⑤ |①-②-|
⑥③口口 |③-④-|
④口②⑦ |⑤-⑥-|
⑧口口口 |⑦-⑧-|
16
③口口口 |①---|
③②②口 |--②-|
口口口口 |----|
口①①口 |③---|
17
口③口口 |--①-|
口口③口 |----|
口②口① |②---|
口口②① |③---|
18
口口口口 |--①-|
③④口② |②---|
①口⑤⑥ |③-④-|
口口口口 |⑤-⑥-|
19
口口口口 |--①-|
口口口口 |----|
①口口口 |--②-|
口④③② |③-④-|
20
口口口① |----|
口口口口 |--①-|
口口口口 |----|
口口口口 |----|
21
口口口口 |----|
①②口口 |----|
口口③口 |--①-|
口口口口 |②-③-|
22
口口②口 |----|
口口口口 |----|
①口口口 |--①-|
口口口口 |--②-|
23
口口口口 |①---|
⑤口①口 |②---|
口口口口 |③-④-|
②口④③ |--⑤-|
24
口口口口 |----|
口口口口 |----|
口口口口 |----|
口口口口 |----|
25
口口口口 |----|
口口口口 |----|
口口口口 |----|
口口口口 |----|
26
口口口口 |--①-|
②口④③ |②---|
⑥⑤口① |③-④-|
口口口口 |⑤-⑥-|
27
口口口口 |--①-|
口口口口 |----|
口口口① |--②-|
②③④口 |③-④-|
28
口口口① |----|
口口口口 |--①-|
口口口口 |----|
口口口口 |----|
29
①④③口 |----|
口⑤②口 |①---|
口口口口 |②-③-|
口口口口 |④-⑤-|
30
口口口口 |----|
口口口口 |----|
口口①② |--①-|
口口口③ |②-③-|
31
④口口④ |----|
口③②口 |①---|
口口口口 |②-③-|
①口口口 |--④-|
32
口口口口 |----|
口口口口 |----|
口口口口 |----|
口口口口 |----|
33
口口口④ |----|
口口③口 |--①-|
口②口口 |②-③-|
①口口口 |④---|
34
①②口口 |①-②-|
③④口口 |③-④-|
⑤⑥口口 |⑤-⑥-|
⑦⑧口口 |⑦-⑧-|
35
口口⑧⑦ |①-②-|
口口⑥⑤ |③-④-|
口口④③ |⑤-⑥-|
口口②① |⑦-⑧-|
36
①②口口 |①-②-|
⑤⑥口口 |③-④-|
口口⑧⑦ |⑤-⑥-|
口口④③ |⑦-⑧-|
37
口口口口 |①-②-|
口口②口 |----|
口①口口 |----|
口口口口 |----|
38
口⑤口口 |①--②|
⑤③⑥口 |--③-|
③①口④ |-④--|
①口口② |⑤-⑥-|
39
口⑥⑤口 |--①-|
⑦口口④ |②-③-|
口②③口 |④-⑤-|
①口口口 |⑥-⑦-|
40
口⑦口口 |①-②-|
⑧①⑥⑤ |③-④-|
口②③④ |⑤-⑥-|
口口口口 |⑦-⑧-|
41
④口口口 |----|
口③口口 |--①-|
口口②口 |②-③-|
口口口① |④---|
42
口口②① |①-②-|
口口④③ |③-④-|
口口⑥⑤ |⑤-⑥-|
口口⑧⑦ |⑦-⑧-|
43
⑦⑧口口 |①-②-|
⑤⑥口口 |③-④-|
③④口口 |⑤-⑥-|
①②口口 |⑦-⑧-|
44
口口②① |①-②-|
口口⑥⑤ |③-④-|
⑦⑧口口 |⑤-⑥-|
③④口口 |⑦-⑧-|
45
口②①口 |①-②-|
口⑥④口 |--③-|
口⑦⑤③ |④-⑤-|
口口口口 |⑥-⑦-|
46
口④④口 |①---|
①口口口 |②---|
口口口③ |③---|
口②②口 |④---|
47
口④④口 |①---|
口口口③ |②---|
①口口口 |③---|
口②②口 |④---|
48
口口口① |----|
②口①口 |①---|
口②口口 |--②-|
口口口口 |----|
49
口口口口 |①---|
口口口口 |----|
口口口① |----|
口口①口 |----|
50
口③口④ |--①-|
口③口④ |②-③-|
①⑤②口 |④---|
①⑤②口 |--⑤-|
51
②④③④ |①-②-|
②⑥③⑥ |③---|
口口口① |④-⑤-|
⑤口⑤① |⑥---|
52
④口③口 |--①-|
④口③口 |②-③-|
口②⑤① |④---|
口②⑤① |--⑤-|
53
⑤③④② |①-②-|
⑦③④② |③-④-|
①口口⑥ |⑤-⑥-|
①口口⑧ |⑦-⑧-|
54
口③口④ |--①-|
口口③④ |②-③-|
①②口⑤ |④---|
①口②⑤ |--⑤-|
55
③⑤②口 |①-②-|
③②⑥④ |③-④-|
口⑦①口 |⑤-⑥-|
口①⑧口 |⑦-⑧-|
56
③口口口 |①---|
口①口② |--②-|
③口口口 |----|
口①口② |③---|
57
口③口③ |--①-|
②口②口 |----|
口口口口 |②---|
①口①口 |③---|
58
④口③口 |--①-|
④口③口 |②-③-|
口②⑤① |④---|
口②⑤① |--⑤-|
59
④③④② |①-②-|
⑥③⑥② |③---|
①口口口 |④-⑤-|
①⑤口⑤ |⑥---|
60
口③口④ |--①-|
口③口④ |②-③-|
①⑤②口 |④---|
①⑤②口 |--⑤-|
61
②④③⑤ |①-②-|
②④③⑦ |③-④-|
⑥口口① |⑤-⑥-|
⑧口口① |⑦-⑧-|
62
④口③口 |--①-|
④③口口 |②-③-|
⑤口②① |④---|
⑤②口① |--⑤-|
63
口②⑤③ |①-②-|
④⑥②③ |③-④-|
口①⑦口 |⑤-⑥-|
口⑧①口 |⑦-⑧-|
64
口口口③ |①---|
②口①口 |--②-|
口口口③ |----|
②口①口 |③---|
65
③口③口 |--①-|
口②口② |----|
口口口口 |②---|
口①口① |③---|
66
口④⑤③ |--①-|
⑤③口④ |-②--|
①口②口 |③--④|
②口①口 |--⑤-|
67
口④⑤③ |--①-|
⑤③口④ |-②--|
①口②口 |③--④|
②口①口 |--⑤-|
68
口④⑤③ |--①-|
⑤③口④ |-②--|
①口②口 |③--④|
②口①口 |--⑤-|
69
①⑤口④ |①--②|
口⑥口⑥ |--③-|
①⑤口④ |④--⑤|
③②③② |--⑥-|
70
③口④⑥ |①---|
口⑤②口 |--②-|
①口①口 |③-④-|
口口口口 |⑤-⑥-|
71
口口⑤口 |--①-|
口口口② |--②-|
④①①③ |③--④|
口口口口 |--⑤-|
72
①①⑤⑤ |①--②|
②②⑥⑥ |--③-|
口口④④ |-④--|
口口③③ |⑤--⑥|
73
⑤口口口 |--①-|
口③口口 |-②--|
②②⑥口 |③-④-|
①①口④ |⑤-⑥-|
74
④①②⑤ |--①-|
①口③② |-②--|
②③口① |③--④|
⑤②①④ |--⑤-|
75
④①②⑤ |--①-|
①口③② |-②--|
②③口① |③--④|
⑤②①④ |--⑤-|
76
口①②口 |①--②|
①③④② |--③-|
③⑥⑤④ |-④--|
口⑥⑤口 |⑤-⑥-|
77
⑥①②⑥ |①--②|
①③④② |--③-|
③⑤⑤④ |-④--|
口口口口 |⑤-⑥-|
78
口⑥口口 |①---|
⑥口口⑤ |--②-|
④口口③ |③-④-|
②①①口 |⑤-⑥-|
79
④口口⑤ |--①-|
⑥②③⑥ |--②-|
④口①⑤ |③-④-|
口②③① |⑤-⑥-|
80
口①①口 |①---|
口口口口 |----|
口①①口 |----|
口口口口 |----|
81
②口口② |①---|
口③③口 |②-③-|
口④④口 |--④-|
①④④① |----|

accuracy: 100%
最終更新:2022年03月26日 03:30