アットウィキロゴ
toy boxer
BEMANI Sound Team "S-C-U & SYUNN"

ADVANCED

Level: 9.5
BPM: 190
Notes: 693

1
口口口口 |----|
口口口口 |----|
口口口口 |----|
口口口口 |----|
2
口口口④ |--①-|
口口②口 |②-③-|
口①⑤口 |④---|
③口口口 |--⑤-|
3
③口口口 |①-②-|
口①口⑥ |③---|
④口口⑤ |④-⑤-|
口口口② |⑥---|
4
口口口④ |--①-|
口口②口 |②-③-|
口①⑤口 |④---|
③口口口 |--⑤-|
5
③口口④ |①-②-|
⑤①⑥口 |③-④-|
口⑦口口 |⑤-⑥⑦|
⑨口⑧② |⑧-⑨-|
6
④口口口 |--①-|
口②口口 |②-③-|
口⑤①口 |④---|
口口口③ |--⑤-|
7
口口口③ |①-②-|
④⑥①⑤ |③-④-|
口口⑦口 |⑤-⑥⑦|
②⑧口⑨ |⑧-⑨-|
8
③口口口 |①---|
口口口② |--②-|
口口口口 |----|
①口口口 |③---|
9
口③口口 |--①-|
口口口② |----|
口口口口 |②---|
口①口口 |③---|
10
口口口⑤ |①-②-|
③口③口 |③-④-|
⑥②⑥② |⑤---|
④①①口 |--⑥-|
11
③口⑥④ |①-②-|
口①口① |③---|
口口口口 |④-⑤-|
口⑤口② |⑥---|
12
口口口④ |--①-|
②口②口 |②-③-|
⑤①⑤① |④---|
③口口口 |--⑤-|
13
③⑤口⑥ |①-②-|
口①⑦① |③-④-|
口⑧口⑨ |⑤-⑥⑦|
口口④② |⑧-⑨-|
14
④口口口 |--①-|
口②口② |②-③-|
①⑤①⑤ |④---|
口口口③ |--⑤-|
15
⑥口⑤③ |①-②-|
①⑦①口 |③-④-|
⑨口⑧口 |⑤-⑥⑦|
②④口口 |⑧-⑨-|
16
口口口③ |①---|
②口③口 |--②-|
口②口① |----|
口口①口 |③---|
17
口口③口 |--①-|
②③口口 |----|
口②口口 |②---|
口①①口 |③---|
18
②口口③ |--①-|
口口④⑥ |②---|
①口口⑤ |③-④-|
口口口口 |⑤-⑥-|
19
口口口口 |--①-|
口口④口 |----|
口口口③ |--②-|
①口②口 |③-④-|
20
①口口口 |----|
口口口口 |--①-|
口口口口 |----|
口口口② |②---|
21
口④口口 |①---|
②口③口 |--②-|
口口⑤口 |--③-|
①口口口 |④-⑤-|
22
②口口口 |----|
口口口口 |----|
口口口口 |--①-|
①口口口 |--②-|
23
口口⑤口 |①---|
口①口口 |②---|
口口口③ |③-④-|
口②④口 |--⑤-|
24
口口口口 |----|
口口口口 |----|
口口口口 |----|
①口口口 |①---|
25
口口口口 |①---|
口口口② |--②-|
口口口口 |----|
③口口① |③---|
26
②③口④ |①-②-|
⑦⑤⑤⑦ |③---|
②③口⑥ |④-⑤-|
⑥①①口 |⑥-⑦-|
27
②口口③ |--①-|
⑥口⑥口 |②---|
④⑤④⑤ |③-④-|
口①口① |⑤-⑥-|
28
①口口② |----|
口①口口 |--①-|
口口口口 |②---|
③口口口 |③---|
29
④②口③ |①---|
②⑥⑤口 |②---|
口④③口 |③-④-|
口⑥⑤① |⑤-⑥-|
30
⑤口口④ |①---|
④口口⑥ |②---|
⑥口口③ |③-④-|
②口口① |⑤-⑥-|
31
③⑤口⑤ |----|
口口④口 |①---|
口③口口 |②-③-|
口①②① |④-⑤-|
32
③口口④ |①---|
口口口口 |②---|
口口口口 |③---|
①口口② |④---|
33
口口口口 |①---|
口⑥⑤口 |②-③-|
④⑤⑥③ |④-⑤-|
①④③② |⑥---|
34
口④①口 |①-②-|
口⑦⑤② |③-④-|
口口⑥③ |⑤-⑥-|
口口口⑧ |⑦-⑧-|
35
①口口⑧ |①-②-|
②口口口 |③-④-|
⑤③口口 |⑤-⑥-|
⑦⑥④口 |⑦-⑧-|
36
口③①口 |①-②-|
口⑤②① |③-④-|
⑧④⑥③ |⑤-⑥-|
⑦⑧口口 |⑦-⑧-|
37
口口②口 |①-②-|
⑥④①② |--③④|
口③⑤口 |⑤-⑥-|
⑧口⑦口 |⑦-⑧-|
38
口口⑨口 |①-②③|
⑦口口⑧ |-④⑤-|
③⑥⑤① |⑥⑦-⑧|
⑩②口④ |⑨-⑩-|
39
口④口② |--①-|
口⑦⑥⑤ |②-③-|
口口③① |④-⑤⑥|
口⑧口口 |⑦-⑧-|
40
③口口⑦ |①-②-|
①口口⑤ |③-④-|
口⑧④口 |⑤-⑥-|
②口口⑥ |⑦-⑧-|
41
口口口口 |----|
口③④口 |--①-|
①④③② |②-③-|
口①②口 |④---|
42
口①④口 |①-②-|
②⑤⑦口 |③-④-|
③⑥口口 |⑤-⑥-|
⑧口口口 |⑦-⑧-|
43
⑧口口① |①-②-|
口口口② |③-④-|
口口③⑤ |⑤-⑥-|
口④⑥⑦ |⑦-⑧-|
44
口①③口 |①-②-|
①②⑤口 |③-④-|
③⑥④⑧ |⑤-⑥-|
口口⑧⑦ |⑦-⑧-|
45
①②口口 |①-②-|
②①④⑤ |--③④|
口⑧③口 |⑤-⑥-|
口⑥口⑦ |⑦-⑧-|
46
⑨④③② |①-②③|
⑥⑦⑧口 |④-⑤-|
①⑪⑩⑤ |⑥⑦⑧-|
口口口口 |⑨-⑩⑪|
47
口⑥④② |①-②-|
⑤口口③ |③④-⑤|
①口口⑦ |⑥-⑦-|
口⑧口⑨ |⑧-⑨-|
48
⑤口口① |①②③④|
口口②⑥ |⑤---|
口③口口 |--⑥-|
④口口口 |----|
49
口④口口 |①---|
④口②口 |②---|
①③口④ |③---|
口口④口 |④---|
50
③⑥⑤① |①-②-|
口②⑤口 |③-④-|
口④③⑦ |⑤---|
①⑤⑥③ |⑥-⑦-|
51
③⑥口① |①-②-|
③口口② |③---|
①④口口 |④-⑤-|
①⑤口③ |⑥---|
52
③⑥⑤① |①-②-|
口②⑤口 |③-④-|
口④③⑦ |⑤---|
①⑤⑥③ |⑥-⑦-|
53
③口④① |①-②-|
③⑨⑥② |③-④-|
①⑤⑦口 |⑤-⑥⑦|
①口⑧③ |⑧-⑨-|
54
①⑤②④ |--①-|
③口口口 |②-③-|
口口口③ |④---|
④②⑤① |--⑤-|
55
②口③⑤ |①-②-|
④⑨⑥① |③-④-|
①口⑦④ |⑤-⑥⑦|
⑤③⑧② |⑧-⑨-|
56
①③口⑤ |①---|
②⑤口③ |②-③-|
④①口口 |④---|
⑤口口① |⑤---|
57
①④⑤口 |①-②-|
③口口⑤ |③---|
④口口② |④---|
口②④口 |⑤---|
58
①⑤⑥③ |①-②-|
口⑤②口 |③-④-|
⑦③④口 |⑤---|
③⑥⑤① |⑥-⑦-|
59
①口⑥③ |①-②-|
②口口③ |③---|
口口④① |④-⑤-|
③口⑤① |⑥---|
60
①⑤⑥③ |①-②-|
口⑤②口 |③-④-|
⑦③④口 |⑤---|
③⑥⑤① |⑥-⑦-|
61
①④口③ |①-②-|
②⑥⑨③ |③-④-|
口⑦⑤① |⑤-⑥⑦|
③⑧口① |⑧-⑨-|
62
④②⑤① |--①-|
口口口③ |②-③-|
③口口口 |④---|
①⑤②④ |--⑤-|
63
⑤③口② |①-②-|
①⑥⑨④ |③-④-|
④⑦口① |⑤-⑥⑦|
②⑧③⑤ |⑧-⑨-|
64
⑨⑤⑫④ |①②③④|
①⑬口⑧ |⑤⑥⑦⑧|
⑦口⑬② |⑨⑩⑪⑫|
③⑪⑥⑩ |⑬---|
65
口③口③ |--①-|
①口口口 |----|
口口口口 |②---|
①②口② |③---|
66
③口②口 |--①-|
口⑤口④ |-②--|
②口③① |③--④|
口④①⑤ |--⑤-|
67
③口②口 |--①-|
口⑤口④ |-②--|
②口③① |③--④|
口④①⑤ |--⑤-|
68
③口②口 |--①-|
口⑤口④ |-②--|
②口③① |③--④|
口④①⑤ |--⑤-|
69
⑤①口④ |①--②|
①口④口 |--③-|
⑥①口④ |④--⑤|
③口②口 |--⑥-|
70
口⑦⑦④ |①---|
⑤口③口 |--②③|
口②①⑥ |④-⑤-|
口①口① |⑥-⑦-|
71
口口口口 |--①-|
口③⑥口 |--②③|
②口④口 |④--⑤|
⑤①①口 |--⑥-|
72
①⑤⑥② |①--②|
③口口④ |--③-|
口④③口 |-④--|
⑥②①⑤ |⑤--⑥|
73
①口口② |--①-|
⑦③④⑧ |-②--|
⑨⑤⑥⑩ |③④⑤⑥|
口②①口 |⑦⑧⑨⑩|
74
①⑤⑤② |--①-|
口③④口 |-②--|
⑤口口⑤ |③--④|
①④③② |--⑤-|
75
①⑤⑤② |--①-|
口③④口 |-②--|
⑤口口⑤ |③--④|
①④③② |--⑤-|
76
①⑥⑥② |①--②|
口③⑤④ |--③-|
口②①口 |-④⑤-|
口⑦⑦③ |⑥-⑦-|
77
①⑦⑦② |①--②|
口③④⑤ |--③-|
口②①口 |-④⑤-|
口⑥⑥③ |⑥-⑦-|
78
⑦口口④ |①---|
⑥口③口 |--②③|
①②⑤① |④-⑤-|
⑦口口口 |⑥-⑦-|
79
口口①口 |--①-|
口口③⑦ |--②③|
⑥④口② |④-⑤-|
口口①⑤ |⑥-⑦-|
80
①①口口 |①---|
①①口口 |----|
口口口口 |----|
口口口口 |----|
81
②口口② |①---|
口③③口 |②-③-|
④④④④ |--④-|
①④④① |----|

accuracy: 100%
最終更新:2022年03月31日 10:57