アットウィキロゴ
toy boxer
BEMANI Sound Team "S-C-U & SYUNN"

EXTREME

Level: 10.5
BPM: 190
Notes: 736

1
口口口口 |----|
口口口口 |----|
口口口口 |----|
口口口口 |----|
2
口⑤口口 |①-②-|
④①①口 |③-④-|
口③口口 |⑤---|
②①①⑥ |--⑥-|
3
④⑥③口 |①-②-|
口口口② |③---|
⑤口①口 |④-⑤-|
口口口口 |⑥---|
4
口口④口 |--①-|
口口口③ |②-③-|
口口②口 |④---|
⑤口口① |--⑤-|
5
口③⑤口 |①-②-|
②口口④ |③-④-|
⑨①⑦⑥ |⑤-⑥⑦|
口口口⑧ |⑧-⑨-|
6
口④口口 |--①-|
③口口口 |②-③-|
口②口口 |④---|
①口口⑤ |--⑤-|
7
⑤⑥③口 |①-②-|
口④⑦② |③-④-|
⑨口①⑧ |⑤-⑥⑦|
口口口口 |⑧-⑨-|
8
③口口口 |①---|
①口口② |--②-|
口①②口 |----|
口③口口 |③---|
9
口口口① |--①-|
②口口③ |----|
②口口③ |②---|
口口①口 |③---|
10
口⑤口口 |①-②-|
④⑥③口 |③-④-|
口③口口 |⑤---|
②⑤①⑦ |⑥-⑦-|
11
④⑥③口 |①-②-|
口⑥③② |③---|
⑤口①口 |④-⑤-|
口④①口 |⑥---|
12
口口⑤口 |①-②-|
口⑥③④ |③-④-|
口口③口 |⑤---|
⑦⑤①② |⑥-⑦-|
13
口③⑤口 |①-②-|
②⑧③④ |③-④-|
⑨①⑦⑥ |⑤-⑥⑦|
口⑤①⑧ |⑧-⑨-|
14
口④口口 |--①-|
③口③口 |②-③-|
口②口口 |④---|
①口①⑤ |--⑤-|
15
⑤⑥③口 |①-②-|
③④⑦② |③-④-|
⑨口①⑧ |⑤-⑥⑦|
①口口口 |⑧-⑨-|
16
⑬⑩口① |①②③④|
⑧⑥⑬⑤ |⑤⑥⑦⑧|
口②⑨⑪ |⑨⑩⑪⑫|
④⑫⑦③ |⑬---|
17
口口口口 |--①-|
口③口③ |----|
口①口口 |②---|
②口②① |③---|
18
⑦②③口 |①-②-|
口口⑥⑦ |③---|
口口⑤④ |④-⑤-|
⑤口口① |⑥-⑦-|
19
口口口口 |--①-|
口口口口 |----|
④口口口 |--②-|
③②①③ |③-④-|
20
②口口① |①---|
口口口口 |--②-|
口口口口 |----|
口口口③ |③---|
21
②口口口 |①---|
口口③④ |--②-|
④口口⑤ |--③-|
①口口口 |④-⑤-|
22
口③口③ |①---|
口口口口 |----|
口②口口 |--②-|
①口口② |--③-|
23
①口口口 |①---|
口口⑥口 |②---|
口口口② |③-④-|
⑤口④③ |⑤-⑥-|
24
①口口口 |①---|
口口口口 |----|
口口口口 |----|
②口口口 |②---|
25
口口口② |①---|
口口口口 |--②-|
口口口③ |----|
口口口① |③---|
26
口③②口 |①-②-|
①口口① |③---|
口口口口
口①①口

口口口⑦
⑦⑥口口
④⑤口口 |④-⑤-|
口口口⑤ |⑥-⑦-|
27
口口口口 |--①-|
口口口口 |----|
口口④口 |--②-|
③①③② |③-④-|
28
①口②口 |①---|
口口口口 |--②-|
口口口口 |----|
③口口口 |③---|
29
口②口③ |①---|
⑤⑥口口 |②-③-|
④⑦口⑥ |④-⑤-|
口口口① |⑥-⑦-|
30
④口口口 |①---|
口口③② |----|
口口④口 |--②-|
②口口① |③-④-|
31
口口口④ |----|
口④口口 |①---|
①口口口 |②-③-|
口③②③ |--④-|
32
口口口口 |----|
口口口口 |----|
口口口口 |----|
口口口① |①---|
33
口口口口 |①---|
口口口口 |--②-|
③⑤④② |③-④-|
①④⑤口 |⑤---|
34
口④①② |①-②-|
口⑦③① |③-④-|
口⑧⑥⑤ |⑤-⑥-|
①口口口 |⑦-⑧-|
35
口口口口 |①-②-|
⑤⑦口口 |③-④-|
③⑧⑥口 |⑤-⑥-|
①②④口 |⑦-⑧-|
36
口口⑥⑤ |①-②-|
口⑧①⑥ |③-④-|
③⑦⑧口 |⑤-⑥-|
②④口口 |⑦-⑧-|
37
口②口口 |①-②-|
口口①⑥ |--③④|
④⑦口② |⑤-⑥-|
③⑤口⑧ |⑦-⑧-|
38
口⑨⑦口 |①-②③|
⑧⑤①⑥ |-④⑤-|
④⑩口③ |⑥⑦-⑧|
口口②口 |⑨-⑩-|
39
④口⑤② |--①-|
口③⑥口 |②-③-|
⑧口⑦① |④-⑤⑥|
口④②口 |⑦-⑧-|
40
口①⑤口 |①-②-|
⑦口⑧口 |③-④-|
口③口④ |⑤-⑥-|
①⑥②⑤ |⑦-⑧-|
41
口口口口 |----|
口口口口 |--①-|
②④③① |②-③-|
口③④口 |④---|
42
口③①② |①-②-|
⑦④②① |③-④-|
⑧⑥⑤③ |⑤-⑥-|
①⑧⑦口 |⑦-⑧-|
43
⑦⑤③② |①-②-|
⑧⑥②④ |③-④-|
口口⑥⑤ |⑤-⑥-|
①口⑧⑦ |⑦-⑧-|
44
口口④③ |①-②-|
口口③④ |③-④-|
口①口口
②口口口

口口口口
⑦口口口
⑤⑧口口 |⑤-⑥-|
口⑥⑦口 |⑦-⑧-|
45
口②口口 |①-②-|
口①②⑧ |--③④|
④⑦①② |⑤-⑥-|
③⑤口⑥ |⑦-⑧-|
46
⑨①⑧口 |①-②③|
口⑥⑦口 |④-⑤-|
⑪⑩③② |⑥⑦⑧-|
⑤口④口 |⑨-⑩⑪|
47
⑧口⑥② |①-②-|
①⑤口口 |③④-⑤|
⑨口⑦④ |⑥-⑦-|
口口③口 |⑧-⑨-|
48
口⑤口① |①②③④|
⑤口②⑥ |⑤---|
口③⑥口 |--⑥-|
④口口口 |----|
49
④口口④ |①---|
口口②口 |②---|
①③口口 |③---|
口①口口 |④---|
50
口④⑤⑥ |①-②-|
①②口① |③-④-|
②④③⑦ |⑤---|
①③⑤① |⑥-⑦-|
51
③④口⑥ |①-②-|
口②口① |③---|
口口口口 |④-⑤-|
③②⑤① |⑥---|
52
口④⑤⑥ |①-②-|
①②口① |③-④-|
②④③⑦ |⑤---|
口③⑤口 |⑥-⑦-|
53
③④⑤⑥ |①-②-|
口②⑦① |③-④-|
⑨④口⑧ |⑤-⑥⑦|
③②⑤① |⑧-⑨-|
54
口口口口 |①-②-|
①④口① |③-④-|
口口③口
口②口口

⑤口口口
⑦口口口
口口口口 |⑤---|
⑤口⑥口 |⑥-⑦-|
55
⑥⑤口③ |①-②-|
口⑦②口 |③-④-|
⑧①④⑨ |⑤-⑥⑦|
口⑤口③ |⑧-⑨-|
56
口口口⑤ |①---|
③口④① |②-③-|
口②⑤口 |④---|
口③①口 |⑤---|
57
⑤④④⑤ |①-②-|
口①口口 |③---|
②③口口 |④---|
口口②口 |⑤---|
58
⑥⑤④口 |①-②-|
①口②① |③-④-|
⑦③④② |⑤---|
①⑤③① |⑥-⑦-|
59
⑥口④③ |①-②-|
①口②口 |③---|
口口口口 |④-⑤-|
①⑤②③ |⑥---|
60
⑥⑤④口 |①-②-|
①口②① |③-④-|
⑦③④② |⑤---|
口⑤③口 |⑥-⑦-|
61
⑥⑤④③ |①-②-|
①⑦②口 |③-④-|
⑧口④⑨ |⑤-⑥⑦|
①⑤②③ |⑧-⑨-|
62
口口口口 |①-②-|
①口④① |③-④-|
口③口口
口口②口

口口口⑤
口口口⑦
口口口口 |⑤---|
口⑥口⑤ |⑥-⑦-|
63
③口⑤⑥ |①-②-|
口②⑦口 |③-④-|
⑨④①⑧ |⑤-⑥⑦|
③口⑤口 |⑧-⑨-|
64
⑫④⑨⑬ |①②③④|
⑧口⑬③ |⑤⑥⑦⑧|
口⑩⑤⑪ |⑨⑩⑪⑫|
⑥②⑦① |⑬---|
65
口③口③ |--①-|
口口口② |----|
③口①口 |②---|
②①②口 |③---|
66
①口口口 |①-②-|
②③②口 |-③--|
口口③口
口②口①

口口⑤⑥
口口口④
口⑤口⑤ |④--⑤|
④口⑥⑥ |--⑥-|
67
口口④⑤ |--①-|
①②①③ |-②--|
口④②④ |③--④|
③①⑤⑤ |--⑤-|
68
⑤口④口 |--①-|
①②①③ |-②--|
口④②④ |③--④|
③①⑤口 |--⑤-|
69
口口口① |①--②|
②口③口 |--③-|
③口②口
口①口口

口④⑤⑥
口⑥口⑥
口口口口 |④--⑤|
④口口⑤ |--⑥-|
70
④③口⑦ |①---|
口⑦②口 |--②③|
⑥①⑤① |④-⑤-|
口①⑥口 |⑥-⑦-|
71
⑥②③口 |--①-|
口口口④ |--②③|
口⑤口① |④--⑤|
口①口口 |--⑥-|
72
⑤③⑥② |①--②|
口①④口 |--③-|
口④①口 |-④--|
⑤③⑥② |⑤--⑥|
73
⑦②口③ |--①-|
⑧⑥④① |-②--|
⑨⑤①口 |③④⑤⑥|
⑩②口口 |⑦⑧⑨⑩|
74
口⑤⑤③ |--①-|
口口④② |-②--|
口口④③ |③--④|
口⑤⑤① |--⑤-|
75
③⑤⑤口 |--①-|
②④口口 |-②--|
③④口口 |③--④|
①⑤⑤口 |--⑤-|
76
③口口① |①--②|
②口口口 |--③-|
口口口②
③口口①

口口口⑦
口口口④
⑥口⑤口 |-④⑤-|
口口口⑦ |⑥-⑦-|
77
④①③⑦ |①--②|
⑦⑤②口 |--③-|
⑥②口口 |-④⑤-|
口①③⑥ |⑥-⑦-|
78
口口口口 |①---|
口口口口 |--②③|
口③①①
②口口口

⑦口口⑥
口⑤④口
⑥口口⑦ |④-⑤-|
口④⑤口 |⑥-⑦-|
79
口④⑤⑥ |--①-|
②⑦口① |--②③|
口③⑦口 |④-⑤-|
⑥⑤④① |⑥-⑦-|
80
①④⑤口 |①-②-|
③口②① |--③-|
①③口② |--④-|
口⑤④① |--⑤-|
81
口④口② |①---|
口④③④ |②-③-|
④口④口 |--④-|
①口④口 |----|

accuracy: 100%
最終更新:2022年03月26日 03:31