アットウィキロゴ
Afterimage d'automne
BEMANI Sound Team "猫叉劇団"

EXTREME

Level: 9.6
BPM: 232
Notes(hold): 708(45)

1
口口口口 |----|
口口口口 |----|
口口口口 |----|
口口口口

口口口口 |----|
口口口口 |----|
口口口口 |----|
口口口口
2
①口口口 |①---|
口口①口 |----|
口口口口 |----|
口口口口

口②口口 |②---|
口口口② |----|
口②口口 |----|
口口口口
3
口口口口 |①---|
①口口口 |②---|
①口②口 |③---|
③口①口

口口⑥④ |④---|
口④口口 |⑤---|
口⑤口④ |⑥---|
口口口口
4
口口口口 |①---|
①口口口 |②---|
口口①口 |----|
①口②口

口口口口 |③---|
口口口口 |----|
口口口③ |④-⑤-|
⑤③④口
5
①口口口 |①---|
口③①口 |②---|
①口②口 |③---|
口口口口

口⑤口⑥ |④---|
口口口④ |⑤---|
口④口④ |⑥---|
口口口口
6
口口口口 |①---|
口口①口 |----|
①口口口 |----|
口口①口

口口②口 |②-③-|
③口⑥口 |--④-|
口②⑤② |⑤-⑥-|
口④口口
7
⑥②口③ |①-②-|
口①口口 |③-④-|
口④口⑤ |⑤-⑥-|
口口口口

口口⑦口 |⑦-⑧-|
⑧⑫⑨口 |⑨-⑩-|
⑩口⑪口 |⑪-⑫-|
口口口口
8
②③口口 |①---|
口口④① |②-③-|
口⑤口口 |④-⑤-|
口口口口

口口⑧口 |⑥---|
⑧口口口 |⑦---|
⑥口⑦口 |⑧---|
⑦口⑥口
9
②口口∨ |①---|
口口口┃ |--②-|
口口口① |----|
口①口口

口口④口 |③---|
口口口口 |--④-|
口③口■ |----|
口口口口
10
①口口口 |①---|
口口口口 |----|
口口口① |----|
口口口口

口口口口 |----|
口口口口 |----|
口口口口 |②---|
口口②口
11
①口口② |①---|
口①③口 |----②-|
口口口口 |③---|
口口口口

口口⑤口 |④---|
口口口口 |⑤---|
口口口口 |⑥---|
口④口⑥
12
③口口口 |①---|
口口口② |②---|
①口口口 |③---|
口口口口

口口口口 |④---|
口口口口 |--⑤-|
口⑤口口 |----|
口④口⑤
13
口①③口 |①---|
口②口① |----②-|
口口口口 |③---|
口口口口

口口口口 |④---|
④口口⑥ |⑤---|
口⑥④⑤ |⑥---|
口⑤口口
14
口口③③ |①-②-|
口口口口 |----|
①口口口 |③---|
②口①口

④口口口 |④---|
口口口口 |----⑤-|
口口⑤口 |⑥---|
口口口⑥
15
②口口① |①---|
口③①口 |----②-|
口口口口 |③---|
口口口口

口⑤口口 |④---|
口口口口 |⑤---|
口口口口 |⑥---|
⑥口④口
16
口口口③ |①---|
②口口口 |②---|
口口口① |③---|
口口口口

口口口口 |④---|
口口口口 |--⑤-|
口口⑤口 |----|
⑤口④口
17
口③①口 |①---|
①口②口 |----②-|
口口口口 |③---|
口口口口

口口口口 |④---|
⑥口口④ |⑤---|
⑤④⑥口 |⑥---|
口口⑤口
18
②口②口 |①---|
口①口口 |--②-|
口②口① |----|
口①口口

口④口④ |③---|
口口③口 |--④-|
③口④口 |----|
口口③口
19
∨口③口 |①---|
①口口口 |②---|
口口口② |③---|
口①口口

口口口口 |④---|
④⑤口口 |⑤---|
口口④口 |⑥---|
⑥口∧口
20
口口口口 |①---|
口口③口 |②---|
①<①② |③---|
口口口口

口口>④ |④---|
口⑤口口 |⑤---|
④口⑥口 |⑥---|
口口口口
21
口口口① |①---|
口口③口 |②---|
口口口② |③---|
>①口口

口口⑥口 |④---|
口口口⑤ |⑤---|
>④口口 |⑥---|
口④口口
22
口口口口 |①---|
口①④口 |②-③-|
口①③口 |--④-|
口②口③

⑦⑤⑦口 |⑤---|
⑤⑥口口 |⑥-⑦-|
口口口口 |----|
口口口口
23
口③口∨ |①---|
口口口① |②---|
②口口口 |③---|
口口①口

口口口口 |④---|
口口⑤④ |⑤---|
口④口口 |⑥---|
口∧口⑥
24
口口口口 |①---|
口③口口 |②---|
②①>① |③---|
口口口口

④<口口 |④---|
口口⑤口 |⑤---|
口⑥口④ |⑥---|
口口口口
25
①口口口 |①---|
口③口口 |②---|
②口口口 |③---|
口口①<

口⑥口口 |④---|
⑤口口口 |⑤---|
口口④< |⑥---|
口口④口
26
口口口口 |①---|
口口①口 |--②-|
口②①口 |----|
②口口②

口口④口 |③---|
④口口④ |--④-|
③口口③ |----|
口③口口
27
②口口口 |①---|
口②口口 |--②-|
口口①口 |----|
①口口①

口口口口 |③---|
口口口∨ |----|
口口口③ |----|
口口③口
28
口口口口 |----|
口口口口 |①---|
口③②② |②-③-|
①口口口

口口口⑦ |④-⑤-|
⑥⑤④⑨ |⑥-⑦-|
⑧口口口 |⑧-⑨-|
口口口口
29
②口口口 |①---|
口②口口 |--②-|
口口①口 |----|
口口口①

口口口口 |③---|
口口口∨ |----|
口口口③ |----|
口口③口
30
∨口口④ |①---|
①①①口 |②-③-|
口口③① |④---|
口口口②

口口⑦口 |⑤-⑥-|
⑦口口口 |⑦---|
口⑥口口 |⑧---|
口⑧⑤口
31
口口口① |①---|
口口①口 |--②-|
口②口口 |----|
②口口口

口口口口 |③---|
口口口∨ |----|
口口口③ |----|
口口③口
32
①口口口 |①---|
⑤口口口 |②-③-|
口口④④ |④-⑤-|
口②③口

口口口⑥ |⑥-⑦-|
口口口⑧ |⑧---|
⑦口口口 |⑨---|
口⑨口口
33
口口口② |①---|
口口②口 |--②-|
口①口口 |----|
①口口口

口口口口 |③---|
∨口口口 |----|
③口口口 |----|
口③口口
34
口口口口 |----|
口口口① |----|
①口①口 |①---|
口①口口

口③口③ |----|
③口口口 |--②-|
口口口② |--③-|
②口②口
35
口口口口 |----|
口口口① |----|
口③②口 |----|
口口口口 |①-②-③-|
36
①口口② |①---|
口①③口 |----②-|
口口口口 |③---|
口口口口

口>⑤口 |④---|
口口口口 |⑤---|
口口口∨ |⑥---|
口④<⑥

口口⑥口
口口口口
口口口口
口⑤口■
37
③口口口 |①---|
口口口② |②---|
①口口口 |③---|
口口口①

口口口口 |④---|
口口口口 |--⑤-|
口口口口 |----|
口④<口

口口口口
口口口口
口⑤口口
口⑤口⑤
38
口①③口 |①---|
口②口① |----②-|
口口口口 |③---|
口口口口

口口口口 |④---|
④口口⑥ |⑤---|
口⑥④⑤ |⑥---|
口⑤口口
39
口口口口 |①-②-|
口口口口 |----|
①口口口 |③---|
∧口①②

口口口口
口③③口
③口口口
口口口口

∨④④口 |④---|
④口口口 |⑤-⑥-|
口口口口 |⑦---|
口口口口

口口口口
⑦口口⑤
口口⑥口
口⑦口口
40
②口口① |①---|
口③①口 |----②-|
口口口口 |③---|
口口口口

口⑤<口 |④---|
口口口口 |⑤---|
∨口口口 |⑥---|
⑥>④口

口⑥口口
口口口口
口口口口
■口⑤口
41
口口口③ |①---|
②口口口 |②---|
口口口① |③---|
①口口口

口口口口 |④---|
口口口口 |--⑤-|
口口口口 |----|
口>④口

口口口口
口口口口
口口⑤口
⑤口⑤口
42
口③①口 |①---|
①口②口 |----②-|
口口口口 |③---|
口口口口

口口口口 |④---|
⑥口口④ |⑤---|
⑤④⑥口 |⑥---|
口口⑤口
43
口口口口 |①---|
口口口口 |----②-|
口口口① |③---|
口口口∧

口口口口
口口③口
口②口③
口口口口

口口口口 |④---|
口⑥口⑥ |⑤---|
⑤口⑤口 |⑥---|
口④口④
44
口口口口 |①---|
③口③口 |②---|
口②口② |③---|
①口①口

口④口④ |④---|
口⑤口⑤ |⑤---|
口⑥口⑥ |⑥---|
口口口口
45
口口口口 |①---|
口口口口 |----②-|
口口口口 |③---④-|
口①>①

口口口口
口③口④
口口②口
口口口③

口口⑤口 |⑤---|
⑧口⑦口 |----⑥-|
口⑥口口 |⑦---⑧-|
口口口口
46
口①口口 |①---|
口③口④ |----②-|
口口②口 |③---④-|
口口口口

口口⑤口 |⑤---|
⑨口⑧口 |⑥---⑦-|
口⑦口⑥ |⑧---⑨-|
口口口口
47
口①口口 |①---|
口口口口 |-②--|
口口口口 |③---|
③口口②

口口口口 |④---|
⑦④④口 |----⑤-|
口口口⑥ |⑥---⑦-|
口口⑤口
48
口①口口 |①---|
口口口口 |②---|
口②③口 |③---|
③口口②

⑤口口④ |④---|
⑥④⑤⑥ |⑤---|
口口口口 |⑥---|
口口口口
49
口口④口 |①---|
口口口口 |②---③-|
③⑤口口 |④---⑤-|
口①①②

口⑧口⑥ |⑥---|
口口口口 |----⑦-|
口口⑨⑦ |⑧---⑨-|
口口口口
50
①口口口 |①---|
③口口② |②---|
口口口口 |③---|
口口口口

口⑤口④ |④---|
口口⑥口 |⑤-⑥-|
口⑦口④ |⑦-⑧-|
口口⑧口
51
口口口③ |①---②-|
①口口口 |----③-|
口口④口 |----④-|
①口口②

口口口口 |⑤---⑥-|
⑧⑤口⑨ |⑦---⑧-|
⑥口口⑦ |⑨---⑩-|
口⑤⑩口
52
口①口④ |①---②-|
口③⑤口 |③---④-|
口①②口 |⑤---|
口口口口

⑥口口口 |⑥---⑦-|
口口口⑧ |----⑧-|
⑥口口口 |----|
口口口⑦
53
口口⑥③ |①---②-|
①口⑤口 |----③-|
口口④② |④-⑤-⑥-|
①口口口

口口口口 |⑦---⑧-|
⑫⑦口⑨ |⑨---⑩-|
⑧口口口 |⑪---⑫-|
口⑦⑪⑩
54
口①⑥② |①---②-|
口口③口 |③---④-|
口①⑤口 |⑤---⑥-|
口④口口

⑦⑬口口 |⑦---|
口⑪口⑫ |⑧-⑨-⑩-|
⑦⑨口⑩ |⑪-⑫-⑬-|
口口口⑧
55
口口③① |①---②-|
口口①口 |----③-|
③口③口 |----|
口②口口

④⑥口口 |④---⑤-|
口④口口 |----⑥-|
口⑥口⑥ |----|
口口⑤口
56
口口③① |①---②-|
口口①口 |----③-|
③口③口 |----|
口②口口

④⑥口口 |④---⑤-|
口④口口 |----⑥-|
口⑥口⑥ |----|
口口⑤口
57
口口③① |①---②-|
口口①② |----③-|
③口③口 |----|
①②口口

④⑥口口 |④---⑤-|
⑤④口口 |----⑥-|
口⑥口⑥ |----|
口口⑤④
58
口口①口 |①---|
口口口① |----|
①口口口 |----|
口①口口

口口口口 |②---|
>━━④ |③---|
③━━< |④---|
>━━②

口口口口
口口口■
④口口口
口口口③
59
口口口口 |①---|
口口③① |②---|
口②口口 |③---|
口①①口

④④━< |④---|
口口口口 |⑤---|
口口口口 |⑥---|
口口口口

口⑤口口
口口口⑥
口口⑤口
口口口口
60
>━①① |①---|
口口口口 |②---|
口口口口 |③---|
口口口口

口口②口
口②口口
口口③口
口口口口

口口口口 |④---|
口口口口 |⑤---|
口口口口 |⑥---|
④④━<

口口口口
⑥口口⑤
⑥口口⑤
口⑥口口
61
口口①① |①---|
口②口口 |②---|
口口②口 |③---|
③口③口

④<口口 |④---|
口口④口 |--⑤-|
口口口口 |----|
口口口口

⑤口口口
口口口口
口⑤<口
口口口⑤
62
口口口口 |①---|
②口口口 |--②-|
口①口① |----|
口①<口

④口口③ |③---|
口口口口 |--④-|
口口口口 |----|
口④口口
63
口口口口 |①---|
口口③口 |②---|
①口②口 |③---|
①口①口

口④口④ |④---|
口⑥口④ |⑤---|
口⑤口口 |⑥---|
口口口口
64
①口①口 |①---|
①口②口 |②---|
口口③口 |③---|
口口口口

口口口口 |④---|
口口口口 |--⑤-|
⑤口口④ |----|
⑤④⑤④
65
口口①口 |①---|
口①②① |②---|
口③口口 |③---|
口口口口

口口口口 |④---|
口口口口 |⑤---|
④口④⑤ |⑥---|
口④⑥口
66
口口口口 |①---|
口②③口 |②---|
∨①口口 |③---|
①口口①

口>④口 |④---|
④口口④ |⑤---|
口⑥⑤口 |⑥---|
④口口口
67
①口①口 |①---|
口口①口 |②---|
①口口口 |③---|
∧②③口

口④>④ |④---|
口⑤⑥口 |⑤---|
④口④口 |⑥---|
口口口口
68
①口口① |①-②-|
②⑤口口 |③-④-|
③④⑥口 |⑤-⑥-|
口口口口

口口口口 |⑦-⑧-|
口口口⑦ |⑨-⑩-|
口口口⑧ |⑪-⑫-|
⑫⑪⑩⑨
69
③口口① |①-②-|
②口①口 |--③-|
口③口口 |----|
口口口口

口口口口 |④---|
口口口口 |⑤---|
口口⑦⑤ |⑥---⑦-|
⑥④口口
70
口⑤④口 |①-②-③-|
⑦③②⑥ |④-⑤-⑥-|
口①口口 |⑦---|
口口口口

口口口⑩ |⑧---⑨-|
口口口口 |----⑩-|
口口⑩口 |----|
口⑨口⑧
71
③①④口 |①---|
①⑤口口 |②---③-|
口口口口 |④---⑤-|
口口②口

口口口口 |⑥---⑦-|
口口口⑥ |⑧---⑨-|
⑦口⑧口 |⑩---⑪-|
⑪⑨口⑩
72
⑥④口⑤ |①-②-③-|
⑧口③⑦ |④-⑤-⑥-|
口②口⑨ |⑦-⑧-⑨-|
口口①口

口⑱⑰口 |⑩-⑪-⑫-|
口⑯⑮口 |⑬-⑭-⑮-|
⑩⑭⑬口 |⑯-⑰-⑱-|
⑫口口⑪
73
①口口③ |①---②-|
③口口① |----③-|
口口口口 |----|
口②②口

口⑤⑤口 |④---⑤-|
口口口⑦ |----⑥-|
⑥口口④ |----⑦-|
④口口⑥
74
口口口① |①---|
口口口口 |--②-|
口口口② |----|
口②口口

④>④口 |③---|
③④<④ |--④-|
口口③口 |----|
③口口口
75
口口■口 |----|
口■口口 |----|
口口口口 |----|
口口口口

口口■口 |----|
口■口口 |----|
口口口口 |----|
口口口口
76
口口■口 |----|
口■口口 |----|
口口口口 |----|
口口口口

口口■口 |----|
口■口口 |----|
口口口口 |----|
口口口口
77
口口■口 |----|
口■口口 |----|
口口口口 |----|
口口口口

口口■口 |----|
口■口口 |----|
口口口口 |----|
口口口口
78
口口①口 |①---|
口①口口 |----|
口口口口 |----|
口口口口

口口口口 |----|
口口口口 |----|
口口口口 |----|
口口口口
最終更新:2020年11月28日 16:56