アットウィキロゴ
おーまい!らぶりー!すうぃーてぃ!だーりん!
BEMANI Sound Team "PON" feat.NU-KO

BASIC

Level: 4
BPM: 170
Notes: 244

1
口口口口 |----|
口口口口 |----|
口口口口 |----|
口口口口 |----|
2
口口口口 |①---|
①口口① |----|
口口口口 |----|
口口口口 |----|
3
口口口口 |----|
口口口口 |----|
口口口口 |----|
口口口口 |----|
4
口口口口 |①---|
口口口口 |----|
①口口① |----|
口口口口 |----|
5
口口口口 |①---|
①口口① |----|
口口口口 |----|
口口口口 |----|
6
口①口口 |①---|
口口②口 |----|
口口口口 |②---|
口口口口 |----|
7
口口口口 |①---|
口口口口 |----|
口①口口 |----|
口口口口 |----|
8
口口①口 |①---|
口②口口 |----|
口口口口 |②---|
口口口口 |----|
9
口口口口 |①---|
口口口口 |----|
口口①口 |----|
口口口口 |----|
10
口②口口 |①---|
①口口口 |----|
口口口口 |②---|
口口口口 |----|
11
口口①口 |①---|
口口口② |----|
口口口口 |②---|
口口口口 |----|
12
口口口口 |①---|
口口口口 |----|
口①①口 |----|
口口口口 |----|
13
①口口① |①---|
口口口口 |----|
口口口口 |----|
口口口口 |----|
14
口口口口 |①---|
①口②口 |----|
口口口口 |②---|
口口口口 |----|
15
口口口口 |①---|
口口口口 |----|
口①①口 |----|
口口口口 |----|
16
口口口口 |①---|
口②口① |----|
口口口口 |②---|
口口口口 |----|
17
口口口口 |①---|
口口口口 |----|
口①①口 |----|
口口口口 |----|
18
口口②口 |①---|
口口口① |----|
口口口口 |②---|
口口口口 |----|
19
口①口口 |①---|
②口口口 |----|
口口口口 |②---|
口口口口 |----|
20
口口口口 |①---|
口口口口 |----|
口①①口 |----|
口口口口 |----|
21
口口口口 |----|
口①口口 |----|
口口①口 |①---|
口口口口 |----|
22
口口口口 |①---|
口口①口 |----|
口①口口 |----|
口口口口 |----|
23
①口口① |①---|
口口口口 |----|
口②②口 |②---|
口口口口 |----|
24
口③口口 |①---|
①口口口 |----|
①②口口 |②---|
口口口口 |③---|
25
口口③口 |①---|
口口口① |----|
口口②① |②---|
口口口口 |③---|
26
口口口口 |①---|
口①①口 |----|
口口口口 |②---|
口②②口 |----|
27
口口口口 |①---|
①口口① |----|
口口口口 |②---|
②口口② |----|
28
口③口口 |①---|
①口口口 |----|
①②口口 |②---|
口口口口 |③---|
29
口口③口 |①---|
口口口① |----|
口口②① |②---|
口口口口 |③---|
30
口口口口 |①---|
口①①口 |----|
口②②口 |②---|
口口口口 |----|
31
②口口② |①---|
①口口① |----|
口口口口 |②---|
口口口口 |----|
32
口口口口 |①---|
口①①口 |----|
口①①口 |----|
口口口口 |----|
33
口口口口 |----|
口口口口 |----|
口口口口 |----|
口口口口 |----|
34
口口口口 |①---|
口口口口 |----|
①口口① |----|
口口口口 |----|
35
口口口口 |①---|
①口口① |----|
口口口口 |----|
口口口口 |----|
36
①口口口 |①---|
口口口口 |----|
②口口口 |②---|
口口口口 |----|
37
口口口口 |①---|
口①①口 |----|
口口口口 |----|
口口口口 |----|
38
口口口① |①---|
口口口口 |----|
口口口② |②---|
口口口口 |----|
39
口口口口 |①---|
口①①口 |----|
口口口口 |----|
口口口口 |----|
40
口①口口 |①---|
口口口口 |----|
口口②口 |②---|
口口口口 |----|
41
口口口口 |①---|
口①①口 |----|
口口口口 |----|
口口口口 |----|
42
口口①口 |①---|
口口口口 |----|
口②口口 |②---|
口口口口 |----|
43
口口口口 |①---|
②①①② |----|
口口口口 |②---|
口口口口 |----|
44
口口口口 |①---|
②①①② |----|
口口口口 |②---|
口口口口 |----|
45
①口口① |①---|
口口口口 |----|
口②②口 |②---|
口口口口 |----|
46
口口③口 |①---|
口口口① |----|
口口②① |②---|
口口口口 |③---|
47
口③口口 |①---|
①口口口 |----|
①②口口 |②---|
口口口口 |③---|
48
口口口口 |①---|
口①①口 |----|
口口口口 |②---|
口②②口 |----|
49
口口口口 |①---|
①口口① |----|
口口口口 |②---|
②口口② |----|
50
口口③口 |①---|
口口口① |----|
口口②① |②---|
口口口口 |③---|
51
口③口口 |①---|
①口口口 |----|
①②口口 |②---|
口口口口 |③---|
52
口口口口 |①---|
口①①口 |----|
口②②口 |②---|
口口口口 |----|
53
②口口② |①---|
①口口① |----|
口口口口 |②---|
口口口口 |----|
54
口口口口 |①---|
口①①口 |----|
口①①口 |----|
口口口口 |----|
55
口口口口 |----|
口口口口 |----|
口口口口 |----|
口口口口 |----|
56
口口口口 |①---|
口口①口 |----|
口①口口 |----|
口口口口 |----|
57
口口口口 |①---|
口①口口 |----|
口口①口 |----|
口口口口 |----|
58
口口口口 |①---|
口口口口 |----|
口口口口 |②---|
①①②② |----|
59
口口口口 |①---|
口口口口 |----|
①①②② |②---|
口口口口 |----|
60
口口口口 |①---|
①①②② |----|
口口口口 |②---|
口口口口 |----|
61
①①②② |①---|
口口口口 |----|
口口口口 |②---|
口口口口 |----|
62
①口口口 |①---|
口①口口 |----|
口口口口 |----|
口口口口 |----|
63
口口口① |①---|
口口①口 |----|
口口口口 |----|
口口口口 |----|
64
口口口口 |①---|
口口口口 |----|
口口口口 |②---|
②①①② |----|
65
口口口口 |①---|
②②②② |----|
①口口① |②---|
口口口口 |----|
66
①口口② |①---|
口口口口 |----|
口口口口 |----|
口口口口 |---②|
67
口口口口 |----|
口口口口 |----|
口口口口 |----|
口口口口 |----|
68
口口②口 |①---|
口口口① |----|
口口口口 |②---|
口口口口 |----|
69
口①口口 |①---|
②口口口 |----|
口口口口 |②---|
口口口口 |----|
70
口口③口 |①---|
口口口① |----|
口口②① |②---|
口口口口 |③---|
71
口③口口 |①---|
①口口口 |----|
①②口口 |②---|
口口口口 |③---|
72
口口口口 |①---|
口①①口 |----|
口②②口 |②---|
口口口口 |----|
73
②口口② |①---|
①口口① |----|
口口口口 |②---|
口口口口 |----|
74
口口口口 |①---|
口①①口 |----|
口①①口 |----|
口口口口 |----|
75
口口口口 |①---|
口口②口 |----|
①②口① |②---|
口口口口 |----|
76
口口口口 |①---|
①②口① |----|
口口②口 |②---|
口口口口 |----|
77
①口口① |①---|
口口②口 |----|
口②口口 |②---|
口口口口 |----|
78
口口口口 |①---|
口①口口 |----|
口口①口 |----|
口口口口 |----|
79
②口口① |①---|
④口口③ |②---|
口口口口 |③---|
口口口口 |④---|
80
口口口口 |①---|
口口口口 |②---|
②口口① |③---|
④口口③ |④---|
81
②口口② |①---|
口口口口 |----|
口①①口 |②---|
口口口口 |----|
82
口口口口 |①---|
口①①口 |----|
口①①口 |----|
口口口口 |----|
83
口口口口 |----|
口口口口 |----|
口①①口 |①---|
口口口口 |----|
84
①口口① |①---|
①②②① |--②-|
口②②口 |----|
口口口口 |----|
85
口口口口 |----|
口口口口 |----|
口口口口 |----|
口口口口 |----|
86
口口口口 |----|
口口口口 |----|
口口口口 |----|
口口口口 |----|

accuracy: 100%
最終更新:2022年03月26日 03:24