アットウィキロゴ
おーまい!らぶりー!すうぃーてぃ!だーりん!
BEMANI Sound Team "PON" feat.NU-KO

ADVANCED

Level: 7
BPM: 170
Notes: 448

1
口口口口 |----|
口口口口 |----|
口口口口 |----|
口口口口 |----|
2
口②口口 |①---|
②口口口 |----|
口口口口 |----|
①口口① |②---|
3
口口②口 |①---|
口口口② |----|
口口口口 |----|
①口口① |②---|
4
口②口口 |①---|
②口口口 |----|
口口口口 |----|
①口口① |②---|
5
口口②口 |①---|
口口口② |----|
口口口口 |----|
①口口① |②---|
6
口③口口 |①---|
②⑤④口 |②---|
口①口口 |③---|
口口口口 |④-⑤-|
7
口口口口 |--①-|
口口口口 |--②-|
口口口① |----|
②口口口 |----|
8
口口③口 |①---|
口④⑤② |②---|
口口①口 |③---|
口口口口 |④-⑤-|
9
口口口口 |--①-|
口口口口 |--②-|
①口口口 |----|
口口口② |----|
10
口③⑤④ |①---|
口口②口 |②---|
口①口口 |③---|
口口口口 |④-⑤-|
11
口口口口 |--①-|
①④④口 |--②-|
口口口② |--③-|
③口口口 |--④-|
12
口口口口 |----|
口口口口 |----|
口口口口 |----|
口口口口 |----|
13
口口口口 |①---|
口口口口 |----|
①①①① |----|
口口口口 |----|
14
③口口③ |①---|
②⑤④② |②---|
①口口① |③---|
口口口口 |④-⑤-|
15
口口口口 |--①-|
口口口口 |--②-|
口口口① |----|
②口口口 |----|
16
③口口③ |①---|
②④⑤② |②---|
①口口① |③---|
口口口口 |④-⑤-|
17
口口口口 |--①-|
口口口口 |--②-|
①口口口 |----|
口口口② |----|
18
③③⑤④ |①---|
口口②② |②---|
①①口口 |③---|
口口口口 |④-⑤-|
19
口口口口 |--①-|
①④④口 |--②-|
口口口② |--③-|
③口口口 |--④-|
20
口口口口 |----|
口口口口 |----|
口口口口 |----|
口口口口 |----|
21
口口口口 |----|
①口口② |----|
②口口① |①---|
口口口口 |--②-|
22
口口口口 |----|
口口口口 |----|
口口口口 |----|
口口口口 |----|
23
②口口② |----|
口口口口 |①---|
口口口口 |②---|
③①①③ |③---|
24
口口口口 |--①-|
口口口① |②-③-|
口口②口
口③口口

口口⑦⑥
口口口⑧
口口口④ |④-⑤-|
口口⑤口 |⑥⑦-⑧|
25
口口⑦⑥ |--①-|
口口⑤⑧ |②-③-|
口口②④ |④-⑤-|
口口③① |⑥⑦-⑧|
26
⑧口⑦⑥ |--①-|
口口⑤口 |②-③-|
口口②④ |④-⑤-|
口口③① |⑥⑦-⑧|
27
口⑤口口 |--①-|
口口④口 |②-③-|
③口口口 |④--⑤|
口①②口 |----|
28
口口口口 |--①-|
①口口口 |②-③-|
口②口口
口口③口

⑥⑦口口
⑧口口口
④口口口 |④-⑤-|
口⑤口口 |⑥⑦-⑧|
29
⑥⑦口口 |--①-|
口⑤口口 |②-③-|
④②口口 |④-⑤-|
①③口口 |⑥⑦--|
30
口口②② |①---|
口口④④ |②---|
口口③③ |③---|
口口①① |④---|
31
口口②② |①---|
③口口③ |②---|
口③③口 |③---|
口口①① |----|
32
口口口口 |①---|
口口口口 |----|
①口口① |----|
口①①口 |----|
33
口口口口 |①---|
口④②口 |②---|
口①③口 |③---|
口口口口 |④---|
34
口口口口 |①---|
④口口② |②---|
①口口③ |③---|
口口口口 |④---|
35
口①④口 |①---|
口口口口 |②---|
口口口口 |③---|
口③②口 |④---|
36
⑤口口口 |--①-|
①口口② |②-③④|
⑥③④⑦ |--⑤-|
口口口口 |⑥-⑦-|
37
口口口① |①---|
口口口口 |----|
口口口口 |----|
口口口口 |----|
38
口④①⑤ |--①-|
口口口口 |②-③-|
⑦③②⑥ |④-⑤-|
口口口口 |⑥-⑦-|
39
①口口口 |①---|
口口口口 |----|
口口②口 |②---|
口②口口 |----|
40
②③⑥⑦ |--①-|
口口口口 |②-③-|
①④⑤口 |④-⑤-|
口口口口 |⑥-⑦-|
41
口口口口 |①---|
口口口口 |--②-|
口口口① |③---|
②口口③ |----|
42
⑤口口口 |--①-|
①口口② |②-③④|
⑥③④⑦ |--⑤-|
口口口口 |⑥-⑦-|
43
口口口① |①---|
②③③② |--②-|
口口口口 |③---|
口口口口 |----|
44
①口口口 |①---|
②③③② |--②-|
口口口口 |③---|
口口口口 |----|
45
①口口① |①---|
口口口口 |②---|
口口口口
②口口②

④口口④
口口口口
口口口口 |③---|
口③③口 |④---|
46
口口口口 |--①-|
①口口口 |②-③-|
口②口口
口口③口

⑥⑦口口
⑧口口口
④口口口 |④-⑤-|
口⑤口口 |⑥⑦-⑧|
47
⑥⑦口口 |--①-|
⑧⑤口口 |②-③-|
④②口口 |④-⑤-|
①③口口 |⑥⑦-⑧|
48
⑥⑦口⑧ |--①-|
口⑤口口 |②-③-|
④②口口 |④-⑤-|
①③口口 |⑥⑦-⑧|
49
口口⑤口 |--①-|
口④口口 |②-③-|
口口口③ |④--⑤|
口②①口 |----|
50
口口口口 |--①-|
口口口① |②-③-|
口口②口
口③口口

口口⑦⑥
口口口⑧
口口口④ |④-⑤-|
口口⑤口 |⑥⑦-⑧|
51
口口⑦⑥ |--①-|
口口⑤口 |②-③-|
口口②④ |④-⑤-|
口口③① |⑥⑦--|
52
②②口口 |①---|
④④口口 |②---|
③③口口 |③---|
①①口口 |④---|
53
②②口口 |①---|
③口口③ |②---|
口③③口 |③---|
①①口口 |----|
54
口口口口 |①---|
口口口口 |----|
①口口① |----|
口①①口 |----|
55
口口口口 |----|
口口口口 |----|
口口口口 |----|
口口口口 |----|
56
口口②口 |①---|
口口口② |---②|
口口口口 |----|
①①口口 |----|
57
口②口口 |①---|
②口口口 |---②|
口口口口 |----|
口口①① |----|
58
①口②口 |①-②-|
③口④口 |③-④-|
口⑤口⑥ |⑤-⑥-|
口⑦口⑧ |⑦-⑧-|
59
口口口口 |①-②-|
口③口④ |③-④-|
①口②口 |----|
口口口口 |----|
60
口①③口 |①-②-|
口②④口 |③-④-|
口⑤⑦口 |⑤-⑥-|
口⑥⑧口 |⑦-⑧-|
61
④口口④ |①---|
③口口③ |②---|
②口口② |③---|
①口口① |④---|
62
口②口口 |①---|
②口口口 |---②|
口口口口 |----|
口①①口 |----|
63
口口②口 |①---|
口口口② |---②|
口口口口 |----|
口①①口 |----|
64
口①④口 |①---|
口口口口 |②---|
口③②口 |③---|
口口口口 |④---|
65
口口口口 |①---|
②②①① |②---|
③③③③ |③---|
口口口口 |----|
66
①口口③ |①---|
口口口口 |----|
口口口口 |②---|
口②②口 |---③|
67
口②口口 |----|
口口口口 |----|
口①①口 |①---|
口口口口 |---②|
68
口口口⑧ |--①-|
②口⑤口 |②-③-|
④口③口 |④-⑤-|
⑥⑦①口 |⑥⑦-⑧|
69
口口口口 |--①-|
口口⑤口 |②-③-|
口口②① |④--⑤|
口口④③ |----|
70
口口口口 |--①-|
①口口口 |②-③-|
口②口口
口口③口

⑥⑦口口
⑧口口口
④口口口 |④-⑤-|
口⑤口口 |⑥⑦-⑧|
71
⑥⑦口口 |--①-|
口⑤口口 |②-③-|
④②口口 |④-⑤-|
①③口口 |⑥⑦--|
72
口口②② |①---|
口口④④ |②---|
口口③③ |③---|
口口①① |④---|
73
口口②② |①---|
③口口③ |②---|
口③③口 |③---|
口口①① |----|
74
口口口口 |①---|
口口口口 |----|
①口口①
口①①口

口口口口
④口口口
③口口口 |--②-|
②口口口 |③-④-|
75
口口口② |--①-|
口口口口 |--②-|
口口口口 |----|
口口口① |----|
76
①口口口 |①---|
口口口④ |----|
口口口③ |--②-|
口口口② |③-④-|
77
口②②口 |--①-|
口口口口 |--②-|
口③③口 |--③-|
口①①口 |----|
78
口口口① |①---|
④口口口 |----|
③口口① |--②-|
②口口口 |③-④-|
79
口口口② |--①-|
③口口口 |--②-|
④口口口 |--③-|
⑤口口① |④-⑤-|
80
口口口口 |①-②-|
口口口口 |----|
口口口① |----|
口口口② |----|
81
口②②口 |①---|
③口口③ |②---|
口③③口 |③---|
口①①口 |----|
82
口口口口 |①---|
口口口口 |----|
①口口① |----|
口①①口 |----|
83
口口口口 |----|
②②②② |----|
①①①① |①---|
口口口口 |②---|
84
①①①① |①---|
口口口口 |--②-|
②口口② |----|
口②②口 |----|
85
口口口口 |----|
口口口口 |----|
口口口口 |----|
口口口口 |----|
86
口口口口 |①---|
口口①口 |----|
口①口口 |----|
口口口口 |----|

accuracy: 100%
最終更新:2022年03月26日 03:24