アットウィキロゴ
おーまい!らぶりー!すうぃーてぃ!だーりん!
BEMANI Sound Team "PON" feat.NU-KO

EXTREME

Level: 9.6
BPM: 170
Notes: 844

1
口口口口 |----|
口口口口 |----|
口口口口 |----|
口口口口 |----|
2
口①口口 |①-②-|
①口口口 |③④-⑤|
口口口⑤
②④③口

⑥⑩口口
口⑧⑨口
口口⑦口 |-⑥-⑦|
口口口口 |⑧⑨⑩-|
3
⑥⑩口口 |①-②-|
①⑧⑨口 |③④-⑤|
口口⑦⑤ |-⑥-⑦|
②④③口 |⑧⑨⑩-|
4
口口①口 |①-②-|
口口口① |③④-⑤|
⑤口口口
口③④②

口口⑩⑥
口⑨⑧口
口⑦口口 |-⑥-⑦|
口口口口 |⑧⑨⑩-|
5
口①口口 |①-②-|
①口口口 |③④-⑤|
口口口⑤
②④③口

⑥⑩口口
口⑧⑨口
口口⑦口 |-⑥-⑦|
口口口口 |⑧⑨⑩-|
6
④⑤口③ |①---|
口口口口 |②---|
口口口口 |③---|
口②①① |④-⑤-|
7
口口口口 |--①-|
口②口① |--②-|
②口①口 |----|
口口口口 |----|
8
③口⑤④ |①---|
口口口口 |②---|
口口口口 |③---|
①口②口 |④-⑤-|
9
口口口口 |--①-|
①口②口 |--②-|
口①口② |----|
口口口口 |----|
10
④口③口 |①---|
口⑤口口 |②---|
口口口口 |③---|
①口②口 |④-⑤-|
11
口③口④ |--①-|
口口口口 |--②-|
口口口口 |--③-|
口②口① |--④-|
12
口⑤⑥口 |①-②-|
口①④口 |③-④-|
口③②口 |⑤-⑥-|
口⑦⑧口 |⑦-⑧-|
13
③口口⑤ |①-②-|
①④⑥② |③④-⑤|
②口口① |⑥-⑦-|
⑦⑦口⑧ |--⑧-|
14
③①①③ |①---|
口⑤⑤口 |②---|
④口口② |③---|
口④②口 |④-⑤-|
15
口①②口 |--①-|
③口口④ |--②-|
口②①口 |--③-|
口④③口 |--④-|
16
①③③① |①---|
⑤口口⑤ |②---|
口④②口 |③---|
④口口② |④-⑤-|
17
①口口② |--①-|
口③④口 |--②-|
②口口① |--③-|
④口口③ |--④-|
18
口①③口 |①---|
①⑤⑤③ |②---|
④口口② |③---|
口④②口 |④-⑤-|
19
①③④② |--①-|
④口口③ |--②-|
口②①口 |--③-|
口口口口 |--④-|
20
①口口② |①---|
口口口⑤ |②-③④|
口③④口 |⑤---|
⑥口口口 |⑥---|
21
②口⑤口 |①---|
口口③口 |②---|
⑤③口④ |③-④-|
口口④① |--⑤-|
22
①口口③ |①-②-|
⑩⑥⑨⑤ |③-④-|
⑫⑧⑪⑦ |⑤⑥⑦⑧|
④口口② |⑨⑩⑪⑫|
23
口口②口 |①---|
口口口② |②---|
口口口口
口口①①

④口口③
口口口口
口口口口 |③---|
③③④④ |④---|
24
口①口口 |①-②-|
④口①② |③-④-|
②口③口
口④口口

口口⑧⑦
口⑨口⑩
口⑥口⑤ |⑤-⑥-|
口口⑥口 |⑦⑧⑨⑩|
25
口口⑦⑥ |--①-|
③⑧⑤⑨ |②-③-|
①⑤②④ |④-⑤-|
口口③① |⑥⑦⑧⑨|
26
⑨口⑦⑥ |--①-|
③⑧⑤口 |②-③-|
①⑤②④ |④-⑤-|
口口③① |⑥⑦⑧⑨|
27
⑦⑥口⑦ |①-②-|
③口⑤① |③-④-|
④⑤⑤口 |⑤--⑥|
③②③① |⑦---|
28
口口①口 |①-②-|
②①口④ |③-④-|
口③口②
口口④口

⑦⑧口口
⑩口⑨口
⑤口⑥口 |⑤-⑥-|
口⑥口口 |⑦⑧⑨⑩|
29
⑥⑦口口 |--①-|
口⑤⑧③ |②-③-|
④②⑤① |④-⑤-|
①③口口 |⑥⑦⑧-|
30
③口②② |①---|
①口④④ |②---|
②口③③ |③---|
④口①① |④---|
31
④②②② |①---|
③⑥⑤③ |②---|
口③③口 |③-④-|
口①①① |⑤-⑥-|
32
口口口口 |①---|
口口口口 |----|
①口口① |----|
口①①口 |----|
33
⑥⑩口口 |①-②-|
①⑧⑨口 |③④-⑤|
口口⑦⑤ |-⑥-⑦|
②④③口 |⑧⑨⑩-|
34
口口①口 |①-②-|
口口口① |③④-⑤|
⑤口口口
口③④②

口口⑩⑥
口⑨⑧口
口⑦口口 |-⑥-⑦|
口口口口 |⑧⑨⑩-|
35
口①口口 |①-②-|
①口口口 |③④-⑤|
口口口⑤
②④③口

⑥⑩口口
口⑧⑨口
口口⑦口 |-⑥-⑦|
口口口口 |⑧⑨⑩-|
36
口口口① |①-②-|
①口口⑥ |③-④⑤|
⑧④⑤口 |--⑥-|
②口⑦③ |⑦-⑧-|
37
⑤①口① |①---|
口口①口 |②-③-|
口④④② |-④--|
③口口⑤ |⑤---|
38
口②③① |①-②-|
①口口④ |③-④-|
⑧口口⑤ |⑤-⑥-|
口⑦⑥口 |⑦-⑧-|
39
口口⑥口 |①-②-|
①⑦①④ |③-④-|
口①⑧④ |⑤-⑥-|
③⑤⑤② |⑦-⑧-|
40
②口口① |①-②-|
①口口③ |③-④-|
④口口口
口口口口

口口口口
⑧口口口
口口口⑦ |⑤-⑥-|
⑥口口⑤ |⑦-⑧-|
41
口①⑧① |①-②-|
⑦口①② |③-④-|
口③⑥口 |⑤-⑥-|
⑤⑤④④ |⑦-⑧-|
42
①口口口 |①-②-|
口口口① |③-④⑤|
口②口③
口④⑤口

口口口口
⑧口口⑦
⑥口口口 |--⑥-|
口口口口 |⑦-⑧-|
43
③③①口 |①---|
口①口口 |--②-|
口口①口 |③---|
口②②口 |----|
44
⑤⑤①① |①-②-|
③⑥⑤② |③-④-|
⑩⑧⑦⑨ |⑤⑥⑦⑧|
⑫④④⑪ |⑨⑩⑪⑫|
45
④②①口 |①---|
②④口① |②---|
口口④口 |③---|
口③③④ |④---|
46
口①①口 |①-②-|
②口口④ |③-④-|
口③口②
口口④口

⑦⑧口口
⑩口⑨口
⑤口⑥口 |⑤-⑥-|
口⑥口口 |⑦⑧⑨⑩|
47
⑥⑦口口 |--①-|
⑨⑤⑧③ |②-③-|
④②⑤① |④-⑤-|
①③口口 |⑥⑦⑧⑨|
48
⑥⑦口⑨ |--①-|
口⑤⑧③ |②-③-|
④②⑤① |④-⑤-|
①③口口 |⑥⑦⑧⑨|
49
⑦口⑥⑦ |①-②-|
①⑤口③ |③-④-|
口⑤⑤④ |⑤--⑥|
①③②③ |⑦---|
50
口①口口 |①-②-|
④口①② |③-④-|
②口③口
口④口口

口口⑧⑦
口⑨口⑩
口⑥口⑤ |⑤-⑥-|
口口⑥口 |⑦⑧⑨⑩|
51
口口⑦⑥ |--①-|
③⑧⑤口 |②-③-|
①⑤②④ |④-⑤-|
口口③① |⑥⑦⑧-|
52
②②口③ |①---|
④④口① |②---|
③③口② |③---|
①①口④ |④---|
53
②②②④ |①---|
③⑤⑥③ |②---|
口③③口 |③-④-|
①①①口 |⑤-⑥-|
54
口口口口 |①---|
口口口口 |----|
①口口① |----|
口①①口 |----|
55
口口⑧⑦ |①-②-|
⑥口口⑤ |③-④⑤|
①口⑨④ |-⑥-⑦|
③口②口 |⑧-⑨-|
56
口口口口 |①-②-|
口①①⑤ |③-④⑤|
口口口④
③口②口

口口⑧⑦
⑥⑨口口
口口⑩口 |-⑥-⑦|
口口口口 |⑧⑨⑩-|
57
口⑧口⑦ |①-②-|
⑥⑨口⑤ |③-④⑤|
①⑩口④ |-⑥-⑦|
③⑪②口 |⑧⑨⑩⑪----|
58
②口⑤口 |①---|
⑩⑥①⑨ |--②③|
④口③口 |④⑤⑥⑦|
口⑧⑪⑦ |⑧⑨⑩⑪|
59
⑦口⑧口 |①②③④|
口口④口 |⑤⑥⑦⑧|
⑤③⑥② |----|
①口口口 |----|
60
⑤⑥⑧⑦ |①②③④|
①②④③ |⑤⑥⑦⑧|
⑨⑩⑫⑪ |⑨⑩⑪⑫|
⑬⑭⑯⑮ |⑬⑭⑮⑯|
61
①⑨⑧④ |①-②③|
①③②④ |④-⑤⑥|
⑦⑤⑥⑩ |⑦-⑧⑨|
⑦口口⑩ |⑩---|
62
①口⑤② |①-②-|
口②①⑤ |③④-⑤|
⑤④③口 |----|
口⑤口口 |----|
63
②⑤口① |①-②-|
⑤①②口 |③④-⑤|
口③④⑤ |----|
口口⑤口 |----|
64
⑪⑫⑩⑨ |①②③-|
口①②③ |④⑤⑥-|
④⑤⑥口 |⑦⑧⑨⑩|
⑦⑧⑭⑬ |⑪⑫⑬⑭|
65
⑥口⑤⑤ |①-②-|
①②③④ |③-④-|
①②③④ |⑤-⑥-|
⑤⑤口⑦ |⑦---|
66
口①口口 |①---|
①口口口 |----|
口口口口
口口①口

③口口口
口③②口
口口口② |②---|
②口③口 |---③|
67
口②口口 |----|
口口口① |----|
口口①口 |①---|
①口口口 |---②|
68
口口口⑧ |--①-|
②口⑤口 |②-③-|
④口③口 |④-⑤-|
⑥⑦①口 |⑥⑦-⑧|
69
①①口口 |①-②-|
③③⑥口 |③-④-|
⑤⑤③② |⑤--⑥|
⑦⑦⑤④ |⑦---|
70
口①①口 |①-②-|
②口口④ |③-④-|
口③口②
口口④口

⑦⑧口口
⑩口⑨口
⑤口⑥口 |⑤-⑥-|
口⑥口口 |⑦⑧⑨⑩|
71
⑥⑦口口 |--①-|
口⑤⑧③ |②-③-|
④②⑤① |④-⑤-|
①③口口 |⑥⑦⑧-|
72
③口②② |①---|
①口④④ |②---|
②口③③ |③---|
④口①① |④---|
73
④②②② |①---|
③⑥⑤③ |②---|
口③③口 |③-④-|
口①①① |⑤-⑥-|
74
口②③口 |①-②-|
口口口口 |--③-|
①口口①
口①①口

口口口口
⑥④⑥口
⑤口口口 |--④-|
④口口口 |⑤-⑥-|
75
口口口② |--①-|
口口口口 |--②-|
口①②口 |--③-|
口③④① |--④-|
76
①口口口 |①-②-|
口④⑥⑥ |--③-|
口②③⑤ |--④-|
口口口④ |⑤-⑥-|
77
①④④口 |①-②-|
③口口口 |③-④-|
⑤⑥⑥口 |⑤-⑥-|
⑦②②口 |⑦---|
78
口③②① |①-②-|
⑥④⑥口 |--③-|
⑤口口① |--④-|
④口口口 |⑤-⑥-|
79
口口口② |--①-|
③口口口 |--②-|
④①②口 |--③-|
⑤③⑤① |④-⑤-|
80
口②②口 |①-②-|
口③③口 |--③-|
口④④① |--④-|
口⑤⑤② |--⑤-|
81
③口口② |①---|
①口口口 |②---|
口口口① |③---|
②口口③ |----|
82
口口口口 |①---|
口①口① |----|
口①①① |----|
口口①口 |----|
83
⑤⑦⑩⑥ |①-②-|
口⑨⑧① |③④-⑤|
⑤⑦口口 |-⑥-⑦|
口③④② |⑧⑨⑩-|
84
②口口② |①---|
①口口① |--②-|
②口口② |----|
①口口① |----|
85
口①口口 |①-②-|
①口口口 |③④-⑤|
口口口⑤
②④③口

⑥⑩口口
口⑧⑨口
口口⑦口 |-⑥-⑦|
口口口口 |⑧⑨⑩-|
86
口口口① |①---|
口口口口 |----|
口口口口 |----|
①口口口 |----|

accuracy: 100%
最終更新:2022年03月31日 10:35