アットウィキロゴ
最小三倍完全数
DJ TECHNORCH

BASIC

Level: 5
BPM : 220
Notes: 335

1
口口口口 |----|
口口口口 |----|
口口口口 |----|
口口口口 |----|
2
口口口口 |----|
口口口口 |----|
口①①口 |①---|
口口口口 |----|
3
口口①① |①---|
口口口口 |----|
口口口口 |----|
口口口口 |----|
4
①①口口 |①---|
口口口口 |----|
口口口口 |----|
口口口口 |----|
5
口口口① |①---|
口口口① |----|
口口口口 |----|
口口口口 |----|
6
①口口口 |①---|
①口口口 |----|
口口口口 |----|
口口口口 |----|
7
口口口口 |①---|
口口①① |----|
口口口口 |----|
口口口口 |----|
8
口口口口 |①---|
①①口口 |----|
口口口口 |----|
口口口口 |----|
9
口口口口 |①---|
口口口① |----|
口口口① |----|
口口口口 |----|
10
口口口口 |①---|
①口口口 |----|
①口口口 |----|
口口口口 |----|
11
口口口口 |①---|
口口口口 |----|
口口口口 |----|
口①①口 |----|
12
口口口口 |----|
口口口口 |----|
口口口口 |----|
口口口口 |----|
13
口口口口 |----|
口口口口 |----|
口口口口 |----|
口口口口 |----|
14
口口口口 |----|
口口口口 |----|
口口口口 |----|
口口口口 |----|
15
口口口口 |①---|
口口口口 |--②-|
①口②口 |----|
口口口口

口③口口
口口口口
口口口口 |③---|
口口口口 |----|
16
口口口口 |①---|
口口口口 |--②-|
口②口① |----|
口口口口

口口③口
口口口口
口口口口 |③---|
口口口口 |----|
17
口口口口 |①---|
口口口口 |--②-|
①口②口 |----|
口口口口

口③口口
口口口口
口口口口 |③---|
口口口口 |----|
18
口口口口 |①---|
口口口口 |--②-|
口②口① |----|
口口口口

口口③口
口口口口
口口口口 |③---|
口口口口 |----|
19
口口口口 |①---|
①①口口 |--②-|
口②②口 |----|
口口口口

口③口口
口口口口
口口口口 |③---|
口口口口 |----|
20
口口口口 |①---|
口口①① |--②-|
口②②口 |----|
口口口口

口口③口
口口口口
口口口口 |③---|
口口口口 |----|
21
口口口口 |①---|
①①口口 |--②-|
口②②口 |----|
口口口口

口③口口
口口口口
口口口口 |③---|
口口口口 |----|
22
口口口口 |①---|
口口①① |--②-|
口②②口 |----|
口口口口

口口③口
口口口口
口口口口 |③---|
口口口口 |----|
23
口口口口 |①---|
①口口口 |--②-|
①口②口 |----|
口口②口

口③口口
口口口口
口口口口 |③---|
口口口口 |----|
24
口口口口 |①---|
口口口① |--②-|
口②口① |----|
口②口口

口口③口
口口口口
口口口口 |③---|
口口口口 |----|
25
口口口口 |①---|
①口口口 |--②-|
①口②口 |----|
口口②口

口③口口
口口口口
口口口口 |③---|
口口口口 |----|
26
口口口口 |①---|
口口口① |-②--|
口口②口 |--③-|
口口口口

口口口口
③口口口
口④口口 |---④|
口口口口 |----|
27
口口①① |①---|
口口口口 |--②-|
口口②② |----|
口口口口

口口口口
口③④口
口口口口 |③---|
口口口口 |④---|
28
①①口口 |①---|
口口口口 |--②-|
②②口口 |----|
口口口口

口口口口
口④③口
口口口口 |③---|
口口口口 |④---|
29
口口①① |①---|
口口口口 |--②-|
口口②② |----|
口口口口

口口口口
口③④口
口口口口 |③---|
口口口口 |④---|
30
①①口口 |①---|
口口口口 |--②-|
②②口口 |----|
口口口口

口口口口
口④③口
口口口口 |③---|
口口口口 |④---|
31
口①口口 |①---|
口口口口 |----|
口口口口 |②---|
口②②口

口口③口
口口口口
口口口口 |----|
口口口口 |③---|
32
口口口口 |----|
口口口口 |①---|
口口口口 |----|
口①①口

口口口口
②口口口
口口口口 |②---|
口口口口 |----|
33
①口口口 |①---|
口口口口 |----|
口口口口 |②---|
口②②口

口口口③
口口口口
口口口口 |----|
口口口口 |③---|
34
口口口口 |----|
口口口口 |①---|
口口口口 |----|
口①①口

口口口口
口口口口
②口口② |②---|
口口口口 |----|
35
口口①口 |①---|
口口口口 |----|
口口口口 |②---|
口②②口

口③口口
口口口口
口口口口 |----|
口口口口 |③---|
36
口口口口 |----|
口口口口 |①---|
口口口口 |----|
口①①口

口口口口
口口口②
口口口口 |②---|
口口口口 |----|
37
口口口① |①---|
口口口口 |----|
口口口口 |②---|
口②②口

③口口口
口口口口
口口口口 |----|
口口口口 |③---|
38
口口口口 |----|
口口口口 |①---|
口口口口 |----|
口①①口

口口口口
口口口口
②口口② |②---|
口口口口 |----|
39
口口口口 |①---|
口①②口 |②---|
口③口口 |③---|
口口口口

口口口口
口⑤口口
口口④口 |④---|
口口口口 |⑤---|
40
口口口口 |①---|
口口①口 |----|
口口口口 |----|
口口口口

口口口口
口口口口
口口口口 |----|
口口口口 |----|
41
口口口口 |①---|
口②①口 |②---|
口口③口 |③---|
口口口口

口口口口
口口⑤口
口④口口 |④---|
口口口口 |⑤---|
42
口口口口 |①---|
口①口口 |----|
口口口口 |----|
口口口口

口口口口
口口口口
口口口口 |----|
口口口口 |----|
43
口口口口 |①---|
①口口② |②---|
③口口口 |③---|
口口口口

口口口口
⑤口口口
口口口④ |④---|
口口口口 |⑤---|
44
口口口口 |①---|
口口口① |----|
口口口口 |----|
口口口口

口口口口
口口口口
口口口口 |----|
口口口口 |----|
45
口口口口 |①---|
②口口① |②---|
口口口③ |③---|
口口口口

口口口口
口口口⑤
④口口口 |④---|
口口口口 |⑤---|
46
口口口口 |①---|
①口口口 |----|
口口口口 |----|
口口口口

口口口口
口口口口
口口口口 |----|
口口口口 |----|
47
口口口口 |①---|
口口口口 |--②-|
口②②口 |----|
①①口口

口③口口
口④口口
口口口口 |③---|
口口口口 |④---|
48
口口口口 |①---|
口口口口 |--②-|
口②②口 |----|
口口①①

口口③口
口口④口
口口口口 |③---|
口口口口 |④---|
49
口口口口 |①---|
口口口口 |--②-|
口②②口 |----|
①①口口

口③口口
口④口口
口口口口 |③---|
口口口口 |④---|
50
口口口口 |①---|
口口口口 |--②-|
口②②口 |----|
口口①①

口口③口
口口④口
口口口口 |③---|
口口口口 |④---|
51
口口口口 |①---|
口口口口 |--②-|
①口②口 |----|
①口②口

口③口口
口④口口
口口口口 |③---|
口口口口 |④---|
52
口口口口 |①---|
口口口口 |--②-|
口②口① |----|
口②口①

口口③口
口口④口
口口口口 |③---|
口口口口 |④---|
53
口口口口 |①---|
口口口口 |--②-|
①口②口 |----|
①口②口

口③口口
口④口口
口口口口 |③---|
口口口口 |④---|
54
口口口口 |①---|
口口口口 |--②-|
口②口① |----|
口②口①

口口③口
口口④口
口口口口 |③---|
口口口口 |④---|
55
口口口口 |----|
口口口口 |----|
口口口口 |----|
口口口口

口口口口
口口口口
口口口口 |----|
口口口口 |----|
56
口口口口 |----|
口口口口 |----|
口口口口 |----|
口口口口

口口口口
口口口口
口口口口 |----|
口口口口 |----|
57
口口口口 |----|
口口口口 |----|
口口口口 |----|
口口口口

口口口口
口口口口
口口口口 |----|
口口口口 |----|
58
口口口口 |----|
口口口口 |----|
口口口口 |----|
口口口口

口口口口
口口口口
口口口口 |----|
口口口口 |----|
59
口口口口 |①---|
①口口② |--②-|
口①②口 |----|
口口口口

口口⑤口
口④口口 |③---|
③口口口 |④---|
口口口口 |⑤---|
60
口口口口 |①---|
①口口② |--②-|
口①②口 |----|
口口口口

口③口口
口口④口 |③---|
口口口⑤ |④---|
口口口口 |⑤---|
61
口口口口 |①---|
①口口② |--②-|
口①②口 |----|
口口口口

口口⑤口
口④口口 |③---|
③口口口 |④---|
口口口口 |⑤---|
62
口口口口 |①---|
①口口② |--②-|
口①②口 |----|
口口口口

口③口口
口口④口 |③---|
口口口⑤ |④---|
口口口口 |⑤---|
63
口口①口 |①---|
口①口口 |--②-|
口口②口 |----|
口②口口

口口口口
④口口口
③口口口 |③---|
口口口口 |④---|
64
口①口口 |①---|
口口①口 |--②-|
口②口口 |----|
口口②口

口口口口
口口口④
口口口③ |③---|
口口口口 |④---|
65
口口①口 |①---|
口①口口 |--②-|
口口②口 |----|
口②口口

口口口口
④口口口
③口口口 |③---|
口口口口 |④---|
66
口①口口 |①---|
口口①口 |--②-|
口②口口 |----|
口口②口

口口口口
口口口④
口口口③ |③---|
口口口口 |④---|
67
①口口① |①---|
口②②口 |②---|
③口口③ |③---|
口口口口

口口口口
口⑥⑥口 |④---|
口⑤⑤口 |⑤---|
口④④口 |⑥---|
68
口口口① |①---|
口口口② |②---|
口口口③ |③---|
口口口口

口口口口
口口口口 |④---|
口⑥口口 |⑤---|
口口⑤④ |⑥---|
69
①口口① |①---|
口②②口 |②---|
③口口③ |③---|
口口口口

口口口口
口⑥⑥口 |④---|
口⑤⑤口 |⑤---|
口④④口 |⑥---|
70
①口口口 |①---|
②口口口 |②---|
③口口口 |③---|
口口口口

口口口口
口口口口 |④---|
口口⑥口 |⑤---|
④⑤口口 |⑥---|
71
口①口口 |①---|
①口口口 |--②-|
口口口② |----|
口口②口

口口口口
口④口口
口③口口 |③---|
口口口口 |④---|
72
口口①口 |①---|
口口口① |--②-|
②口口口 |----|
口②口口

口口口口
口口④口
口口③口 |③---|
口口口口 |④---|
73
口①口口 |①---|
①口口口 |--②-|
口口口② |----|
口口②口

口口口口
口④口口
口③口口 |③---|
口口口口 |④---|
74
口①①② |①---|
口口②口 |②---|
口口③口 |③---|
口口口③

⑤口口口
口⑤口口
口④口口 |④---|
④口口口 |⑤---|
75
口口①口 |①---|
②口口口 |--②-|
口口口口 |----|
口口口口

口口⑤口
口④口口 |③---|
口口③口 |④---|
口口口口 |⑤---|
76
口①口口 |①---|
口口口② |--②-|
口口口口 |----|
口口口口

口⑤口口
口口④口 |③---|
口③口口 |④---|
口口口口 |⑤---|
77
口口口口 |----|
口口口口 |----|
口口口口 |----|
口口口口

口口口口
口口口口 |----|
口口口口 |----|
口口口口 |----|
78
口口口口 |----|
口口口口 |----|
口口口口 |----|
口口口口

口口口口
口口口口 |----|
口口口口 |----|
口口口口 |----|
79
②②②② |①---|
口口口口 |②---|
口口口口 |----|
①①①①

口口口口
口口口口 |----|
口口口口 |----|
口口口口 |----|
80
口口口口 |①---|
口①①口 |----|
口①①口 |----|
口口口口

口口口口
口口口口 |----|
口口口口 |----|
口口口口 |----|

accuracy: 100%
最終更新:2022年05月21日 05:00