アットウィキロゴ
最小三倍完全数
DJ TECHNORCH

ADVANCED

Level: 7
BPM : 220
Notes: 475

1
口口口口 |----|
口口口口 |----|
口口口口 |----|
口口口口 |----|
2
口口口口 |----|
口口口口 |----|
口口口口 |①---|
口①①口 |----|
3
口口①① |①---|
口②口口 |--②-|
口口③口 |③---|
口口口口 |----|
4
①①口口 |①---|
口口②口 |--②-|
口③口口 |③---|
口口口口 |----|
5
口口①① |①---|
口②口口 |--②-|
口口③口 |③---|
口口口口 |----|
6
①①口口 |①---|
口口②口 |--②-|
口③口口 |③---|
口口口口 |----|
7
口口口口 |①---|
口②口口 |--②-|
口口③口 |③---|
口口①① |----|
8
口口口口 |①---|
口口②口 |--②-|
口③口口 |③---|
①①口口 |----|
9
口口口口 |①---|
口②口口 |--②-|
口口③口 |③---|
口口①① |----|
10
口③③口 |①---|
口口口口 |--②-|
①口口② |----|
①口口② |③---|
11
口口口口 |①---|
口口口口 |----|
口①①口 |----|
口口口口 |----|
12
口口口口 |----|
口口口口 |----|
口口口口 |----|
口口口口 |----|
13
口口口口 |----|
口口口口 |----|
口口口口 |----|
口口口口 |----|
14
口口口口 |----|
口口口口 |----|
口口口口 |----|
口口口口 |----|
15
口口口口 |①---|
②口口口 |--②-|
口口口口 |----|
口①口口

口口④口
口口③口
口口口口 |③---|
口口口口 |④---|
16
口口口口 |①---|
口口口② |--②-|
口口口口 |----|
口口①口

口④口口
口③口口
口口口口 |③---|
口口口口 |④---|
17
口口口口 |①---|
②口口口 |--②-|
口口口口 |----|
口①口口

口口④口
口口③口
口口口口 |③---|
口口口口 |④---|
18
口口口口 |①---|
口口口② |--②-|
口口口口 |----|
口口①口

口④口口
口③口口
口口口口 |③---|
口口口口 |④---|
19
口口口口 |①---|
②口口口 |--②-|
②口口口 |----|
口①①口

口口④口
口口③口
口口口口 |③---|
口口口口 |④---|
20
口口口口 |①---|
口口口② |--②-|
口口口② |----|
口①①口

口④口口
口③口口
口口口口 |③---|
口口口口 |④---|
21
口口口口 |①---|
②口口口 |--②-|
②口口口 |----|
口①①口

口口④口
口口③口
口口口口 |③---|
口口口口 |④---|
22
口口口口 |①---|
口口口② |--②-|
口口口② |----|
口①①口

口④口口
口③口口
口口口口 |③---|
口口口口 |④---|
23
口口口口 |①---|
②口口口 |--②-|
口②口口 |----|
①①口口

口口④口
口口③口
口口口口 |③---|
口口口口 |④---|
24
口口口口 |①---|
口口口② |--②-|
口口②口 |----|
口口①①

口④口口
口③口口
口口口口 |③---|
口口口口 |④---|
25
口口口口 |①---|
口口口口 |--②-|
②口口② |----|
①口口①

口口口口
③口口③
口口口口 |③---|
口口口口 |----|
26
口口口口 |①---|
口②①口 |-②--|
口②①口 |--③-|
口口口口

口口口口
④口口③
④口口③ |---④|
口口口口 |----|
27
①口口① |①---|
口口口口 |--②-|
口口口口 |----|
口②②口

口口口口
口口口③
口口口口 |③---|
口口口④ |④---|
28
①口口① |①---|
口口口口 |--②-|
口口口口 |----|
口②②口

口口口口
③口口口
口口口口 |③---|
④口口口 |④---|
29
①口口① |①---|
口口口口 |--②-|
口口口口 |----|
口②②口

口口口口
口口口③
口口口口 |③---|
口口口④ |④---|
30
①口口① |①---|
口口口口 |--②-|
口口口口 |----|
口②②口

口口口口
③口口口
口口口口 |③---|
④口口口 |④---|
31
口②②口 |①---|
口口口口 |②---|
口口①口 |③---|
口③口口

口口口口
口④④口
口⑤口口 |④---|
口口口口 |⑤---|
32
口①①口 |①---|
口③③口 |②---|
口口口口 |③---|
口口②口

口口口口
口口口口
⑤口口④ |④---|
口口口口 |⑤---|
33
口②②口 |①---|
口口口口 |②---|
口口①口 |③---|
口③口口

口口口口
口④④口
口⑤口口 |④---|
口口口口 |⑤---|
34
口①①口 |①---|
口③③口 |②---|
口口口口 |③---|
口口②口

④口口⑤
口口口口
口口口口 |④---|
口口口口 |⑤---|
35
口②②口 |①---|
口口口口 |②---|
口①口口 |③---|
口口③口

口口口口
口④④口
口口⑤口 |④---|
口口口口 |⑤---|
36
口①①口 |①---|
口③③口 |②---|
口口口口 |③---|
口②口口

口口口口
口口口口
④口口⑤ |④---|
口口口口 |⑤---|
37
口②②口 |①---|
口口口口 |②---|
口①口口 |③---|
口口③口

口口口口
口④④口
口口⑤口 |④---|
口口口口 |⑤---|
38
口①①口 |①---|
口③③口 |②---|
口口口口 |③---|
口②口口

⑤口口④
口口口口
口口口口 |④---|
口口口口 |⑤---|
39
口口口口 |①---|
口口口① |②---|
口③②① |③---|
口③②口

口⑤口口
④⑤口口
④口口口 |④---|
口口口口 |⑤---|
40
口口①口 |①---|
口口①② |②---|
口口口② |----|
口口口口

口口口口
口口口口
口口口口 |----|
口口口口 |----|
41
口口口口 |①---|
口②③口 |②---|
①②③口 |③---|
①口口口

口口口口
口口口口
口口口④ |④---|
口⑤⑤④ |⑤---|
42
口口口口 |①---|
①口口① |----|
口口口口 |----|
口口口口

口口口口
口口口口
口口口口 |----|
口口口口 |----|
43
口口口口 |①---|
①口口口 |②---|
①②③口 |③---|
口②③口

口口⑤口
口口⑤④
口口口④ |④---|
口口口口 |⑤---|
44
口①口口 |①---|
口①口口 |--②-|
口口口口 |----|
口②②口

口口口口
口口口口
口口口口 |----|
口口口口 |----|
45
口口口口 |①---|
口口①口 |②---|
口③②① |③---|
③口口②

口口口口
口④口口
④口口口 |④---|
口⑤⑤口 |⑤---|
46
①口口① |①---|
①口口① |----|
口口口口 |----|
口口口口

口口口口
口口口口
口口口口 |----|
口口口口 |----|
47
②②口口 |①---|
口口口口 |--②-|
口口口口 |----|
口口①①

口口口口
口③④口
口④③口 |③---|
口口口口 |④---|
48
口口②② |①---|
口口口口 |--②-|
口口口口 |----|
①①口口

口口口口
口③④口
口④③口 |③---|
口口口口 |④---|
49
②②口口 |①---|
口口口口 |--②-|
口口口口 |----|
口口①①

口口口口
口③④口
口④③口 |③---|
口口口口 |④---|
50
口口②② |①---|
口口口口 |--②-|
口口口口 |----|
①①口口

口口口口
口③④口
口④③口 |③---|
口口口口 |④---|
51
②②口口 |①---|
口口口口 |--②-|
口口口口 |----|
口口①①

口口口口
口口④③
口④③口 |③---|
口口口口 |④---|
52
口口②② |①---|
口口口口 |--②-|
口口口口 |----|
①①口口

口口口口
③④口口
口③④口 |③---|
口口口口 |④---|
53
②②口口 |①---|
口口口口 |--②-|
口口口口 |----|
口口①①

口口口口
口口④③
口④③口 |③---|
口口口口 |④---|
54
口口②② |①---|
口口口口 |--②-|
口口口口 |----|
①①口口

口口口口
③④口口
口③④口 |③---|
口口口口 |④---|
55
口口口口 |----|
口口口口 |----|
口口口口 |----|
口口口口

口口口口
口口口口
口口口口 |----|
口口口口 |----|
56
口口口口 |----|
口口口口 |----|
口口口口 |----|
口口口口

口口口口
口口口口
口口口口 |----|
口口口口 |----|
57
口口口口 |----|
口口口口 |----|
口口口口 |----|
口口口口

口口口口
口口口口
口口口口 |----|
口口口口 |----|
58
口口口口 |----|
口口口口 |----|
口口口口 |----|
口口口口

口口口口
口口口口
口口口口 |----|
口口口口 |----|
59
①②口口 |①---|
口口口口 |--②-|
②①口口 |----|
口口口口

口口口口
④⑤④⑤ |③---|
口口口口 |④---|
③口③口 |⑤---|
60
口口②① |①---|
口口口口 |--②-|
口口①② |----|
口口口口

口口口口
口④口④ |③---|
口口口口 |④---|
⑤③⑤③ |⑤---|
61
①②口口 |①---|
口口口口 |--②-|
②①口口 |----|
口口口口

口口口口
④⑤④⑤ |③---|
口口口口 |④---|
③口③口 |⑤---|
62
口口②① |①---|
口口口口 |--②-|
口口①② |----|
口口口口

口口口口
口④口④ |③---|
口口口口 |④---|
⑤③⑤③ |⑤---|
63
①②口口 |①---|
口口口口 |--②-|
②①口口 |----|
口口口口

口口口口
④④口口
口口口口 |③---|
③③口口 |④---|
64
口口②① |①---|
口口口口 |--②-|
口口①② |----|
口口口口

口口口口
口口④④
口口口口 |③---|
口口③③ |④---|
65
①②口口 |①---|
口口口口 |--②-|
②①口口 |----|
口口口口

口口口口
④④口口
口口口口 |③---|
③③口口 |④---|
66
口口②① |①---|
口口口口 |--②-|
口口①② |----|
口口口口

口口口口
口口④④
口口口口 |③---|
口口③③ |④---|
67
①口口① |①---|
③③口口 |②-③-|
口口②② |----|
口口口口

口⑦⑥⑤
口口口口 |④---|
口口口口 |⑤-⑥-|
④④口口 |⑦---|
68
口口口口 |①-②-|
口口③③ |--③-|
①①口口 |----|
口口②②

⑥口口⑤
④口口口 |④---|
口口口口 |⑤---|
口口口口 |⑥---|
69
口口口口 |①-②-|
③③口口 |--③-|
口口①① |----|
②②口口

⑤口口⑥
口口口④ |④---|
口口口口 |⑤---|
口口口口 |⑥---|
70
口①①口 |①---|
③③口口 |②-③-|
口口②② |----|
口口口口

口口口口
口口口⑥ |④---|
⑤口口口 |⑤---|
口口口④ |⑥---|
71
口①口口 |①---|
①口口口 |②-③-|
口③③② |----|
口口②口

⑤口口口
口口口口
口口口口 |④---|
④口口口 |⑤---|
72
口口①口 |①---|
口口口① |②-③-|
②③③口 |----|
口②口口

口口口⑤
口口口口
口口口口 |④---|
口口口④ |⑤---|
73
口①②口 |①-②-|
①口口② |③-④-|
③口口④ |----|
口③④口

⑥口口口
口口口口
口口口口 |⑤---|
⑤口口口 |⑥---|
74
口①①① |①---|
口②②② |②---|
口③③③ |③---|
口口口口

⑤口口口
⑤口口口
⑤口口口 |④---|
口④④④ |⑤---|
75
口口口① |①---|
口口口口 |--②-|
口②口口 |----|
口口口口

口⑤口口
口口④口 |③---|
口口口③ |④---|
口口口口 |⑤---|
76
①口口口 |①---|
口口口口 |--②-|
口口②口 |----|
口口口口

口口⑤口
口④口口 |③---|
③口口口 |④---|
口口口口 |⑤---|
77
口口口口 |----|
口口口口 |----|
口口口口 |----|
口口口口

口口口口
口口口口 |----|
口口口口 |----|
口口口口 |----|
78
口口口口 |----|
口口口口 |----|
口口口口 |----|
口口口口

口口口口
口口口口 |----|
口口口口 |----|
口口口口 |----|
79
②①①② |①---|
②①①② |②---|
口口口口 |----|
口口口口

口口口口
口口口口 |----|
口口口口 |----|
口口口口 |----|
80
口口口口 |①---|
口口口口 |----|
口①口① |----|
①口①口

口口口口
口口口口 |----|
口口口口 |----|
口口口口 |----|

accuracy: 100%
最終更新:2022年05月24日 03:07