アットウィキロゴ
最小三倍完全数
DJ TECHNORCH

EXTREME

Level: 10.3
BPM : 220
Notes: 666

1
口口口口 |----|
口口口口 |----|
口口口口 |----|
口口口口 |----|
2
口口口① |----|
口口口口 |----|
口口口口 |①---|
口①口口 |----|
3
⑤①口口 |①---|
口口口② |②-③-|
口口③口 |④---|
口④口① |⑤---|
4
口口①⑤ |①---|
②口口口 |②-③-|
口③口口 |④---|
①口④口 |⑤---|
5
⑤①口口 |①---|
口口口② |②-③-|
口口③口 |④---|
口④口① |⑤---|
6
口口①口 |①---|
②口口口 |②-③-|
口③⑥口 |④-⑤-|
①⑤④口 |⑥---|
7
⑤口口口 |①---|
口①口② |②-③-|
口口口③ |④---|
口口④① |⑤---|
8
口口口⑤ |①---|
②口①口 |②-③-|
③口口口 |④---|
①④口口 |⑤---|
9
⑤口口口 |①---|
口①口② |②-③-|
口口口③ |④---|
口口④① |⑤---|
10
口口口③ |①---|
口②①口 |--②-|
口口③口 |----|
①③口② |③---|
11
①口口口 |①---|
口口口口 |----|
口①口口 |----|
口口①口 |----|
12
口口口口 |----|
口口口口 |----|
口口口口 |----|
口口口口 |----|
13
口口口口 |----|
口口口口 |----|
口口口口 |----|
口口口口 |----|
14
口口口口 |----|
口口口口 |----|
口口口口 |----|
①口口② |①-②-|
15
①②口口 |①---|
口口口口 |--②-|
口口口② |----|
口①口口

④口口口
口口③口
口口③口 |③---|
口④口口 |④---|
16
口口②① |①---|
口口口口 |--②-|
②口口口 |----|
口口①口

口口口④
口③口口
口③口口 |③---|
口口④口 |④---|
17
①②口口 |①---|
口口口口 |--②-|
口口口② |----|
口①口口

④口口口
口口③口
口口③口 |③---|
口④口口 |④---|
18
口口②① |①---|
口口口口 |--②-|
②口口口 |----|
口口①口

口口口④
口③口口
口③口口 |③---|
口口④口 |④---|
19
①②口口 |①---|
口口口口 |--②-|
口口口口 |----|
②①口口

④口口口
口口③口
口口③口 |③---|
口④口口 |④---|
20
口口②① |①---|
口口口口 |--②-|
口口口口 |----|
口口①②

口口口④
口③口口
口③口口 |③---|
口口④口 |④---|
21
①②口口 |①---|
口口口口 |--②-|
口口口口 |----|
②①口口

④口口口
口口③口
口口③口 |③---|
口④口口 |④---|
22
口口②① |①---|
口口口口 |--②-|
口口口口 |----|
口口①②

口口口④
口③口口
口③口口 |③---|
口口④口 |④---|
23
①②口口 |①---|
口口口口 |--②-|
口口口口 |----|
②①口口

④口口口
口口③口
口口③口 |③---|
口④口口 |④---|
24
口口②① |①---|
口口口口 |--②-|
口口口口 |----|
口口①②

口口口④
口③口口
口③口口 |③---|
口口④口 |④---|
25
口①②口 |①---|
口口口口 |--②-|
口口口口 |----|
①口口②

口口口口
口口口口
口③③口 |③---|
口口口口 |----|
26
③口口① |①---|
口②口口 |-②--|
口口口口 |--③-|
②③①口

口口口口
口口④口
口口口口 |---④|
口口口④ |----|
27
口口②① |①---|
口口口口 |--②-|
口口口口 |----|
口②①口

口③口口
口口口口
④⑥口口 |③-④-|
③口口⑤ |⑤-⑥-|
28
口口②① |①---|
口口口口 |--②-|
口口口口 |----|
口②①口

口③口口
口口口口
④⑥口口 |③-④-|
③口口⑤ |⑤-⑥-|
29
口口②① |①---|
口口口口 |--②-|
口口口口 |----|
口②①口

口③口口
口口口口
④⑥口口 |③-④-|
③口口⑤ |⑤-⑥-|
30
口口④① |①-②-|
口③口口 |③-④-|
口口⑤② |⑤---|
口④①口

口⑥口口
口口⑦口
口⑧口口 |⑥---|
⑥口口口 |⑦-⑧-|
31
口口②口 |①---|
口②口口 |②---|
口口口口 |③---|
口③①口

口④口口
口口④口
口口口口 |④---|
口口口⑤ |⑤---|
32
口③①口 |①---|
口①③口 |②---|
口口口口 |③---|
②口口口

口口口口
口口口口
⑤口口④ |④---|
口口口口 |⑤---|
33
口口口② |①---|
②口口口 |②---|
口口口口 |③---|
口①③口

④口口口
口口口④
口口口口 |④---|
⑤口口口 |⑤---|
34
③口口① |①---|
①口口③ |②---|
口口口口 |③---|
口口口②

口口口口
⑤口④口
④口⑤口 |④---|
口口口口 |⑤---|
35
口口②口 |①---|
口②口口 |②---|
口口口口 |③---|
口③①口

口④口口
口口④口
口口口口 |④---|
口口口⑤ |⑤---|
36
口③①口 |①---|
口①③口 |②---|
口口口口 |③---|
②口口口

口口口口
口口口口
⑤口口④ |④---|
口口口口 |⑤---|
37
口口口② |①---|
②口口口 |②---|
口口口口 |③---|
口①③口

④口口口
口口口④
口口口口 |④---|
⑤口口口 |⑤---|
38
③口口① |①---|
口③①口 |②---|
口口口口 |③---|
口口口②

口④⑤口
口口口口
⑤口口④ |④---|
口口口口 |⑤---|
39
口口口① |①---|
口口①口 |②---|
口③②④ |③-④-|
③口口②

⑤口口⑦
⑧⑤⑦⑥
口口口口 |⑤-⑥-|
口口口口 |⑦-⑧-|
40
口口④口 |①-②-|
口口口口 |③-④-|
②③①口 |--⑤-|
③⑤口①

口口口口
⑦口口⑥
口口口⑧ |--⑥-|
口口口口 |⑦-⑧-|
41
①口口口 |①---|
口①口口 |②-③-|
口②④口 |④-⑤-|
②⑤③④

⑧⑦⑨⑥
口⑧⑥口
口口口口 |⑥-⑦-|
口口口口 |⑧-⑨-|
42
口口口口 |①---|
口口口口 |②---|
③①②③ |③---|
①口口②

口④⑤口
口口口口
口口口口 |④-⑤-|
口⑥⑦口 |⑥-⑦-|
43
口口口① |①-②-|
②口①⑥ |③-④-|
④⑤③口 |⑤-⑥-|
⑤口口③

⑦口口⑨
口⑦⑨口
口口口⑧ |⑦-⑧-|
口口口口 |⑨---|
44
口②②口 |①---|
⑤口口④ |②-③-|
口口①口 |④-⑤-|
口③③①

口口口口
口口口口
⑦口口⑥ |⑥-⑦-|
⑨口口⑧ |⑧-⑨-|
45
口口①口 |①-②-|
口②⑤③ |③-④-|
口口①⑥ |⑤-⑥-|
口④⑤口

⑨口口⑧
口口口口
口⑦⑩口 |⑦-⑧-|
口口口口 |⑨-⑩-|
46
口①①口 |①---|
①口口口 |----|
口口口口 |----|
口口口口

⑥口口②
⑦口口③
⑧口口④ |②③④⑤|
⑨口口⑤ |⑥⑦⑧⑨|
47
口口①口 |①---|
口②口口 |--②-|
口②口口 |----|
口口①口

④口口口
口口口③
口口口③ |③---|
④口口口 |④---|
48
口①口口 |①---|
口口②口 |--②-|
口口②口 |----|
口①口口

口口口④
③口口口
③口口口 |③---|
口口口④ |④---|
49
口口①口 |①---|
口②口口 |--②-|
口②口口 |----|
口口①口

④口口口
口口口③
口口口③ |③---|
④口口口 |④---|
50
口①口口 |①---|
口口②口 |--②-|
口口②口 |----|
口①口口

口口口④
③口口口
③口口口 |③---|
口口口④ |④---|
51
口口①口 |①---|
口②口口 |②-③-|
口④③口 |④---|
口口①口

⑥口口口
口口口⑤
口口口⑤ |⑤---|
⑥口口口 |⑥---|
52
口①口口 |①---|
口口②口 |②-③-|
口③④口 |④---|
口①口口

口口口⑥
⑤口口口
⑤口口口 |⑤---|
口口口⑥ |⑥---|
53
口口①口 |①---|
口②口口 |②-③-|
口④③口 |④---|
口口①口

⑥口口口
口口口⑤
口口口⑤ |⑤---|
⑥口口口 |⑥---|
54
口①口口 |①---|
口口②口 |②-③-|
口③④口 |④---|
口①口口

⑥口口⑤
口口口口
口口口口 |⑤---|
⑥口口⑤ |⑥---|
55
口口口口 |----|
口口口口 |----|
口口口口 |----|
口口口口

口口口口
口口口口
口口口口 |----|
口口口口 |----|
56
口口口口 |----|
口口口口 |----|
口口口口 |----|
口口口口

口口口口
口口口口
口口口口 |----|
口口口口 |----|
57
口口口口 |----|
口口口口 |----|
口口口口 |----|
口口口口

口口口口
口口口口
口口口口 |----|
口口口口 |----|
58
口口口口 |----|
口口口口 |----|
口口口口 |----|
口口口口

①口口口
②口口口
③口口口 |----|
④口口口 |①②③④|
59
口口②① |①---|
口口口口 |--②-|
口口口口 |----|
口①②口

口③口口
⑤④⑤⑤ |③---|
口口③④ |④---|
④口口③ |⑤---|
60
①②口口 |①---|
口口口口 |--②-|
口口口口 |----|
口②①口

口口③口
⑤⑤④口 |③---|
④③⑤口 |④---|
③口口④ |⑤---|
61
口口②① |①---|
口口口口 |--②-|
口口口口 |----|
口①②口

口③口口
⑤④⑤⑤ |③---|
口口③④ |④---|
④口口③ |⑤---|
62
①②口口 |①---|
口口口口 |--②-|
口口口口 |----|
口②①口

口口③口
⑤⑤④口 |③---|
④③⑤口 |④---|
③口口④ |⑤---|
63
口②②① |①---|
口口口口 |--②-|
口口口② |----|
口①①口

口口口④
③口④④
口口③口 |③---|
③口口口 |④---|
64
①②②口 |①---|
口口口口 |--②-|
②口口口 |----|
口①①口

④口口口
④④口③
口③口口 |③---|
口口口③ |④---|
65
口②②① |①---|
口口口口 |--②-|
口口口② |----|
口①①口

口口口④
③口④④
口口③口 |③---|
③口口口 |④---|
66
①②②口 |①---|
口口口口 |--②-|
②口口口 |----|
口①①口

④口口口
④④口③
口③口口 |③---|
口口口③ |④---|
67
口口③① |①---|
口口③口 |②-③-|
口口①① |④---|
④②②④

⑥⑧口口
⑧⑥口⑦ |⑤---|
⑤⑤⑦口 |⑥-⑦-|
口口口口 |⑧---|
68
口口①① |①-②-|
口口③口 |--③-|
口口口③ |----|
口③②②

⑥④口口
⑤⑥口④ |④---|
⑤⑤④口 |⑤---|
⑥口口口 |⑥---|
69
口口①① |①-②-|
口口③口 |--③-|
口口口③ |----|
口③②②

⑥④口口
⑤⑥口④ |④---|
⑤⑤④口 |⑤---|
⑥口口口 |⑥---|
70
口口③① |①---|
口口③口 |②-③-|
口口口口 |----|
口②②①

⑥口口⑤
④⑥口口 |④---|
④④口口 |⑤---|
⑥口口⑤ |⑥---|
71
口①③口 |①---|
口口③口 |②-③-|
口④①① |④---|
口②②④

⑥口口口
口⑤口口
⑤口⑥口 |⑤---|
⑥口口口 |⑥---|
72
口①口② |①---|
①口口② |②-③-|
口口口口 |----|
口口③③

口⑤④口
口④口口
⑤口口⑤ |④---|
口④口口 |⑤---|
73
③口口① |①-②-|
①口口③ |③-④-|
口②④口 |----|
④口口②

口口口⑥
口口⑤口
口口口⑥ |⑤---|
口口⑤口 |⑥---|
74
①⑤⑨口 |①②③④|
②⑥⑩口 |⑤⑥⑦⑧|
③⑦⑪口 |⑨⑩⑪⑫|
④⑧⑫口

⑰口口⑬
⑱口口⑭
⑲口口⑮ |⑬⑭⑮⑯|
⑳口口⑯ |⑰⑱⑲⑳|
75
口①口口 |①---|
口口②口 |--②-|
口口口口 |----|
口口口口

口口口⑤
口口口④ |③---|
口③口口 |④---|
口口口口 |⑤---|
76
口口①口 |①---|
口②口口 |--②-|
口口口口 |----|
口口口口

⑤口口口
④口口口 |③---|
口口③口 |④---|
口口口口 |⑤---|
77
口口口口 |----|
口口口口 |----|
口口口口 |----|
口口口口

口口口口
口口口口 |----|
口口口口 |----|
口口口口 |----|
78
口口口口 |----|
口口口口 |----|
口口口口 |----|
口口口口

口口口口
口口口口 |----|
口口口口 |----|
口口口口 |----|
79
⑥口口② |①---|
口⑦③口 |②-③-④-|
口④口口 |⑤-⑥-⑦-|
⑤①①口

口⑬⑫口
⑭口口⑪ |⑧-⑨-⑩-|
⑮口⑧⑩ |⑪-⑫-⑬-|
口⑯口⑨ |⑭-⑮-⑯-|
80
口口口口 |①---|
口口口口 |----|
口口口口 |----|
口口①口

口口口口
口口口口 |----|
口口口口 |----|
口口口口 |----|

accuracy: 100%
最終更新:2022年05月24日 03:39