アットウィキロゴ
Six String Proof
BEMANI Sound Team "Yvya × Mutsuhiko Izumi"

BASIC

Level: 4
BPM : 130
Notes: 187

1
口口口口 |----|
口口口口 |----|
口口口口 |----|
口口口口 |----|
2
口口口口 |----|
口口口口 |----|
口口口口 |----|
口口口口 |----|
3
口口口口 |----|
口口口口 |----|
口口口口 |----|
口口口口 |----|
4
口口口口 |----|
口口口口 |----|
口口口口 |----|
口口口口 |----|
5
口口口口 |----|
口口口口 |----|
口口口口 |----|
口口口口 |----|
6
口口口口 |①---|
口①②口 |----|
口口口口 |②---|
口口口口 |----|
7
口口口口 |①---|
口②②口 |----|
口①①口 |②---|
口口口口 |----|
8
口口口口 |①---|
口口口口 |----|
口①②口 |②---|
口口口口 |----|
9
②口口② |①---|
口①①口 |----|
口口口口 |----|
口口口口 |②---|
10
口口②口 |①---|
口口①口 |----|
口口口口 |②---|
口口口口 |----|
11
口口口口 |①---|
①②③④ |②---|
口口口口 |③---|
口口口口 |④---|
12
口口口口 |①---|
口口口口 |----|
②①①② |②---|
口口口口 |----|
13
口口口口 |----|
口口口口 |----|
口口口口 |----|
口口口口 |----|
14
口②口口 |①---|
口①口口 |----|
口口口口 |②---|
口口口口 |----|
15
口口口口 |①---|
④③②① |②---|
口口口口 |③---|
口口口口 |④---|
16
口口口口 |①---|
口口口口 |----|
②①①② |②---|
口口口口 |----|
17
口口口口 |①---|
口口①口 |②---|
口②口口 |③---|
口口③口 |----|
18
口口口口 |①---|
口①口口 |----|
口②口口 |②---|
口口口口 |----|
19
口口口口 |①---|
口口②口 |----|
口口①口 |②---|
口口口口 |----|
20
口口①口 |①---|
口②口口 |----|
口口口口 |②---|
口口口口 |----|
21
口①口口 |①---|
口口②口 |----|
口口口口 |②---|
口口口口 |----|
22
口口口口 |①---|
②口口口 |----|
口①①口 |②---|
口口口口 |----|
23
口口口口 |①---|
口口口② |----|
口①①口 |②---|
口口口口 |----|
24
①口口① |①---|
口口②口 |----|
口口口口 |②---|
口口口口 |----|
25
①口口① |①---|
口②口口 |----|
口口口口 |②---|
口口口口 |----|
26
①口口口 |①---|
②口口口 |②---|
③口口口 |③---|
口口口口 |----|
27
口③口口 |①---|
口②口口 |②---|
口①口口 |③---|
口口口口 |----|
28
口口①口 |①---|
口口②口 |②---|
口口③口 |③---|
口口口口 |----|
29
口口口③ |①---|
口口口② |②---|
口口口① |③---|
口口口口 |----|
30
口口口口 |①---|
口口口口 |----|
口①①口 |----|
口口口口 |----|
31
口口口口 |①---|
②口口② |----|
①口口① |②---|
口口口口 |----|
32
口口口口 |①---|
口口口口 |----|
口口口口 |②---|
②①①② |----|
33
口口口口 |①---|
口口口口 |②---|
①②③口 |③---|
口口口口 |----|
34
口口口口 |①---|
①③口口 |②---|
②④口口 |③---|
口口口口 |④---|
35
口口口口 |①---|
口口①③ |②---|
口口②④ |③---|
口口口口 |④---|
36
口口口口 |①---|
口口口口 |----|
口口口口 |②---|
②①①② |----|
37
口口口口 |①---|
口口口口 |②---|
口③②① |③---|
口口口口 |----|
38
口①①口 |①---|
口②②口 |----|
口口口口 |②---|
口口口口 |----|
39
①口口③ |①---|
口②④口 |②---|
口口口口 |③---|
口口口口 |④---|
40
口①①口 |①---|
口口口口 |----|
口②②口 |②---|
口口口口 |----|
41
口①③口 |①---|
口②④口 |②---|
口口口口 |③---|
口口口口 |④---|
42
①①口口 |①---|
口口口口 |----|
口②②口 |②---|
口口口口 |----|
43
口口①① |①---|
口口口口 |----|
口②②口 |②---|
口口口口 |----|
44
口口口口 |①---|
口口口口 |②---|
①口口④ |③---|
口②③口 |④---|
45
口④④口 |①---|
③③①① |②---|
口②②口 |③---|
口口口口 |④---|
46
①口口① |①---|
口口口口 |----|
口口口口 |----|
口口口口 |----|
47
口口口口 |①---|
口口口口 |----|
①口口① |②---|
②口口② |----|
48
口②②口 |①---|
口①①口 |----|
口口口口 |②---|
口口口口 |----|
49
口口口口 |①---|
①②③④ |②---|
口口口口 |③---|
口口口口 |④---|
50
口口口口 |①---|
口③口口 |②---|
口①①口 |③---|
口②④口 |④---|
51
③口口③ |①---|
口口①口 |②---|
口②②口 |③---|
口口口口 |----|
52
口②②口 |①---|
口①①口 |----|
口口口口 |②---|
口口口口 |----|
53
口口口口 |①---|
④③②① |②---|
口口口口 |③---|
口口口口 |④---|
54
口口口口 |①---|
口口口口 |----|
②①①② |②---|
口口口口 |----|
55
①口口① |①---|
口口口口 |----|
口②②口 |②---|
口口口口 |----|
56
口口口口 |①---|
①口口② |----|
①口口② |②---|
口口口口 |----|
57
口口口口 |①---|
口口口口 |②---|
③③④④ |③---|
①①②② |④---|
58
口口口口 |①---|
①①①① |----|
口口口口 |----|
口口口口 |----|

accuracy: 100%
最終更新:2022年05月06日 03:32