アットウィキロゴ
Six String Proof
BEMANI Sound Team "Yvya × Mutsuhiko Izumi"

ADVANCED

Level: 6
BPM : 130
Notes: 383

1
口口口口 |----|
口口口口 |----|
口口口口 |----|
口口口口 |----|
2
口口口口 |①---|
③口口④ |②---|
①口口② |③---|
口口口口 |④---|
3
口③③口 |①---|
口口口口 |--②-|
口①②口 |----|
口②①口 |③---|
4
口口口口 |①---|
③口口④ |②---|
①口口② |③---|
口口口口 |④---|
5
口①①口 |①---|
口②②口 |②---|
口③③口 |③---|
口④④口 |④---|
6
口⑤②口 |①---|
①口④② |②---|
①③口口 |③-④-|
口口口口 |⑤---|
7
③口口③ |①---|
口口口① |--②-|
②口口① |----|
口②口口 |③---|
8
口②⑤口 |①---|
②④口① |②---|
口口③① |③-④-|
口口口口 |⑤---|
9
口口口口 |----|
口①①口 |----|
口①①口 |----|
口口口口 |①---|
10
口②⑤口 |①---|
②口口⑤ |②--③|
口口口③ |--④-|
①④口① |-⑤--|
11
口口口口 |①-②-|
口①②口 |③-④-|
⑦③④⑧ |⑤-⑥-|
口⑤⑥口 |⑦-⑧-|
12
口②口口 |①---|
①①③口 |②-③-|
口口口口
口口口口

⑦口口⑦
⑥口口⑥
口④口口 |④-⑤-|
口口⑤口 |-⑥-⑦|
13
口②②口 |----|
口口口口 |①---|
口口口口 |②---|
口①①口 |----|
14
口⑤②口 |①---|
⑤口口② |②--③|
③口口口 |--④-|
①口④① |-⑤--|
15
口口口口 |①-②-|
口②①口 |③-④-|
⑧④③⑦ |⑤-⑥-|
口⑥⑤口 |⑦-⑧-|
16
②口口口 |①---|
②口①① |②---|
口口口口
口口口口

⑥口口⑥
⑤口口⑤
口口③口 |③-④-|
口④口口 |-⑤-⑥|
17
口口②口 |----|
口②口口 |①---|
口口①口 |②---|
口①口口 |----|
18
①口口口 |①---|
口口口② |②---|
口③口口 |③-④-|
口口④口 |----|
19
口口口口 |①-②-|
④①口④ |③---|
口口②口 |④---|
口③口口 |----|
20
口口口口 |①---|
口口口② |②---|
①口口口 |③-④-|
口④③口 |----|
21
④口口口 |①-②-|
口⑤⑥① |③---|
口③②口 |④-⑤-|
口口口口 |⑥---|
22
口口口口 |①---|
口口口口 |----|
②口口② |②---|
口①①口 |----|
23
口口口口 |①---|
口①①③ |②---|
口⑤④口 |③-④-|
口②②口 |⑤---|
24
口①①口 |①---|
口口口口 |----|
口②②口 |②---|
口口口口 |----|
25
口口⑤口 |①---|
口④口口 |②---|
②口③① |③-④-|
②口口① |⑤---|
26
①口口② |①---|
③口口④ |②---|
口口口口 |③---|
口口口口 |④---|
27
口口口口 |①-②-|
口①④口 |③---|
口⑤②口 |④-⑤-|
口⑥③口 |⑥---|
28
口口口口 |①---|
口口口口 |②---|
④口口③ |③---|
②口口① |④---|
29
口④①口 |①-②-|
口②⑤口 |③---|
口③⑥口 |④-⑤-|
口口口口 |⑥---|
30
口口口口 |①---|
①口口① |②-③-|
口⑥⑦口 |④-⑤-|
⑤④③② |⑥-⑦-|
31
③口⑦③ |①--②|
①⑥⑤① |--③-|
②④口② |④-⑤-|
口口口口 |⑥-⑦-|
32
口口口口 |①---|
①口口口 |----|
①口②口 |--②-|
④③口口 |③-④-|
33
口口口② |①---|
口口口③ |②-③-|
④①口口 |----|
口口口口 |--④-|
34
口口口口 |①-②-|
口①③⑤ |③-④-|
口②④⑥ |⑤-⑥-|
口⑧⑦口 |⑦-⑧-|
35
口口口口 |①-②-|
⑤③①口 |③-④-|
⑥④②口 |⑤-⑥-|
口⑦⑧口 |⑦-⑧-|
36
口口口口 |①---|
口口①口 |----|
口口口①
口口口口

口口口口
②口口②
③口口③ |--②-|
口④④口 |③-④-|
37
口②②口 |①---|
口③③④ |②-③-|
口①①④ |----|
口口口口 |--④-|
38
①①口② |①---|
口⑥③口 |--②-|
口⑤④口 |③-④-|
口口口口 |⑤-⑥-|
39
口②③口 |①-②-|
①口口④ |③-④-|
⑧口口⑤ |⑤-⑥-|
口⑦⑥口 |⑦-⑧-|
40
口口口口 |①---|
口口口① |--②-|
口②①③ |----|
②口③口 |③---|
41
口口口口 |①-②-|
①口②口 |③-④-|
③⑦④⑧ |⑤-⑥-|
口⑤口⑥ |⑦-⑧-|
42
③①口② |①---|
口①口口 |②---|
口④④口 |③---|
口口口口 |④---|
43
⑦口①⑦ |①-②-|
⑥②③⑥ |③-④-|
口④⑤口 |⑤-⑥-|
口口口口 |-⑦--|
44
口②口口 |①---|
口口②口 |②---|
口①③口 |③---|
口③①口 |----|
45
②口口① |①-②-|
口②①口 |③-④-|
口④③口
④口口③

⑦⑥⑤⑦
⑥口口⑤
口口口口 |⑤-⑥-|
口口口口 |⑦---|
46
口口口口 |--①-|
口口①口 |②-③-|
⑥②⑦③ |④-⑤-|
④口⑤口 |⑥-⑦-|
47
口口口口 |①-②-|
⑤①⑥② |③-④-|
⑦③口④ |⑤-⑥-|
口⑦口口 |⑦---|
48
口⑤②口 |①---|
⑤口口② |②--③|
③口口口 |--④-|
①口④① |-⑤--|
49
口口口口 |①-②-|
口②①口 |③-④-|
⑧④③⑦ |⑤-⑥-|
口⑥⑤口 |⑦-⑧-|
50
口口口口 |①---|
②口①① |②-③-|
口③口口
口口口口

口口口口
口④⑥口
口口⑤⑦ |④-⑤-|
口口口口 |⑥-⑦-|
51
口③②⑤ |①-②-|
④口⑤① |③-④-|
口口口口 |⑤---|
口口口口 |----|
52
口②⑤口 |①---|
②口口⑤ |②--③|
口口口③ |--④-|
①④口① |-⑤--|
53
口口口口 |①-②-|
口①②口 |③-④-|
⑦③④⑧ |⑤-⑥-|
口⑤⑥口 |⑦-⑧-|
54
口口口② |①---|
①①口② |②---|
⑤口口⑥ |③-④-|
③⑤⑥④ |-⑤-⑥|
55
②①口② |----|
①口口口 |①---|
口口口口 |----|
口口口口 |②---|
56
口口口口 |①---|
①口口② |----|
②口口① |②---|
口口口口 |----|
57
口①②口 |①---|
口②①口 |②---|
口口口口
口口口口

口口口口
⑤⑤④④
口口⑥⑥ |③---|
口③③口 |④-⑤-⑥-|
58
口口口口 |①---|
口口口口 |----|
①①口口 |----|
口口口口 |----|

accuracy: 100%
最終更新:2022年05月06日 03:42