アットウィキロゴ
Six String Proof
BEMANI Sound Team "Yvya × Mutsuhiko Izumi"

EXTREME

Level: 9.5
BPM : 130
Notes: 736

1
口口口口 |----|
口口口口 |----|
口口口口 |----|
口口口口 |----|
2
⑥①口口 |①-②③|
①口⑤② |④⑤-⑥|
口④③口
口口口口

口口⑧⑦
⑬⑩口口
⑨⑭⑫⑪ |⑦⑧⑨⑩|
口口口口 |⑪⑫⑬⑭|
3
⑥口口⑤ |①--②|
口③①口 |--③-|
⑤口口⑥ |-④--|
②口口④ |⑤-⑥-|
4
⑥①口口 |①-②③|
①口⑤② |④⑤-⑥|
口④③口
口口口口

口口⑧⑦
⑬⑩口口
⑨⑭⑫⑪ |⑦⑧⑨⑩|
口口口口 |⑪⑫⑬⑭|
5
④⑥⑤③ |①②③④|
⑩⑭⑬⑨ |⑤⑥⑦⑧|
⑫口⑮⑪ |⑨⑩⑪⑫|
②⑧⑦① |⑬⑭⑮-|
6
①①口② |①-②③|
⑤口⑤③ |④⑤-⑥|
口④口④
⑥口⑥口

⑫口⑬口
口⑪口⑭
⑦口⑩口 |⑦⑧⑨⑩|
口⑧口⑨ |⑪⑫⑬⑭|
7
③口口① |①--②|
口③①口 |--③-|
口口口口
②口口口

口口⑥口
口口⑤口
口口⑦口 |-④--|
口口口④ |⑤⑥⑦-|
8
①①口② |①-②③|
⑤口⑤③ |④⑤-⑥|
口④口④
⑥口⑥口

⑫口⑬口
口⑪口⑭
⑦口⑩口 |⑦⑧⑨⑩|
口⑧口⑨ |⑪⑫⑬⑭|
9
口口④① |----|
口口②④ |----|
口③④口 |①-②-③-|
口④口口 |④---|
10
①口口② |①②③④|
③①口口 |⑤⑥-⑦|
口⑥口④
⑤⑦口口

口口口口
口口⑫⑨
⑧口⑩⑪ |⑧-⑨⑩|
口口口口 |-⑪⑫-|
11
①⑦⑧② |①②③④|
⑪⑮⑯⑫ |⑤⑥⑦⑧|
⑨⑬⑭⑩ |⑨⑩⑪⑫|
③⑤⑥④ |⑬⑭⑮⑯|
12
①①口口 |①---|
口口口② |②-③-|
口③口③
口口口②

口⑦⑦口
⑦⑥⑥⑦
④口④口 |④-⑤-|
⑤口⑤口 |-⑥-⑦|
13
口口口口 |----|
口口口口 |①-②-|
②口口①
①口口②

口③④口
⑤口口口
口口口口 |③-④-|
⑤④③口 |-⑤--|
14
②口口① |①②③④|
口口口③ |⑤⑥-⑦|
④口⑥口
口⑤⑦⑤

口口口口
⑨⑫口口
⑪⑩口⑧ |⑧-⑨⑩|
口口口口 |-⑪⑫-|
15
②⑧⑦① |①②③④|
⑫⑯⑮⑪ |⑤⑥⑦⑧|
⑩⑭⑬⑨ |⑨⑩⑪⑫|
④⑥⑤③ |⑬⑭⑮⑯|
16
②口①① |①---|
⑧口口⑦ |②---|
⑩④③⑨ |③④⑤⑥|
口⑥⑤② |⑦⑧⑨⑩|
17
③口口① |①②③④|
⑨④②⑩ |⑤⑥⑦⑧|
⑩⑧⑥⑨ |⑨--⑩|
⑦口口⑤ |----|
18
口①①口 |①---|
口口口② |②---|
口口口口
口①①口

口口口口
③口口口
口④口口 |③④⑤⑥|
口口⑤⑥ |----|
19
口⑥口口 |①②③④|
口⑤口口 |⑤⑥--|
口口③④
①②口口

口口⑪口
口⑩口⑦
口口⑨口 |⑦---|
口⑧⑦口 |⑧⑨⑩⑪|
20
①口⑧② |①---|
③④口⑦ |②---|
口口⑤口 |③④⑤⑥|
口口⑥口 |--⑦⑧|
21
口①⑧⑦ |①-②③|
口⑨⑪⑫ |④⑤-⑥|
②⑩口⑤ |⑦⑧⑨⑩|
⑥③④口 |⑪⑫--|
22
口口③③ |①-②-|
口口口口 |③--④|
口口④口
②口①①

⑤⑧⑨口
口口⑥口
口⑦口口 |-⑤-⑥|
口口口口 |⑦-⑧⑨|
23
口口口① |①-②③|
②③④口 |④--⑤|
⑥⑧⑦口 |⑥-⑦-|
⑧⑥⑤⑦ |⑧---|
24
⑦口口① |①②③④|
口③②④ |⑤⑥-⑦|
口⑥⑤口
口口口口

口口口口
⑧口口⑪
⑨口口口 |⑧⑨⑩-|
⑩口口⑪ |⑪---|
25
口①口口 |①②③④|
口②④口 |⑤⑥⑦⑧|
口⑤③⑧
口⑥⑦口

⑨口口⑩
口⑬口口
⑪口⑬口 |⑨⑩⑪⑫|
口口口⑫ |⑬---|
26
口④口口 |①-②③|
⑥⑦③口 |④--⑤|
口⑧⑨② |-⑥⑦⑧|
口①①⑤ |⑨---|
27
口口口① |①②③④|
口口②口 |⑤-⑥-|
口⑤口③
口口④⑥

口口⑦口
⑨口口口
⑧口口口 |⑦-⑧⑨|
口⑩⑩口 |⑩---|
28
①⑩口口 |①-②③|
⑨⑧③② |④-⑤⑥|
口⑤⑥④ |⑦-⑧⑨|
口⑦口口 |⑩---|
29
②口口① |①②③④|
口口⑥⑤ |⑤-⑥-|
口口⑤⑥
④口口③

口口口口
⑦⑧口口
⑧⑦口口 |⑦-⑧-|
口⑨口⑨ |⑨---|
30
口②③① |①---|
④口①⑤ |②-③-|
口⑥⑦口 |④-⑤-|
①口口口 |⑥-⑦-|
31
①口③② |①--②|
口①②③ |--③-|
口③口口
②口口①

口⑦口口
口口⑥口
口口⑤口 |④-⑤-|
口④口口 |⑥-⑦-|
32
①口口① |①-②③|
口口口⑥ |④⑤-⑥|
①③口①
②⑤④口

口⑧⑨口
⑦⑪⑨口
⑩口⑫口 |⑦⑧⑨-|
⑩口⑫口 |⑩⑪⑫-|
33
①口②口 |①---|
口口④口 |②③④-|
口①口②
口③口④

⑩口口⑨
⑥口口⑤
⑨⑧⑦⑩ |⑤⑥⑦⑧|
口口口口 |⑨-⑩-|
34
口②①⑫ |①②③④|
⑥④③⑬ |⑤-⑥⑦|
⑦口⑤口 |⑧-⑨⑩|
⑧⑪⑩⑨ |⑪-⑫⑬|
35
②③④口 |①-②③|
⑤口口口 |④-⑤⑥|
⑥口口①
口口口口

口⑭口口
口⑫⑬口
口⑧⑨口 |⑦⑧⑨⑩|
⑦⑩⑪口 |⑪⑫⑬⑭|
36
口口①① |①-②③|
⑥口口口 |④⑤-⑥|
口口③口
口④⑤②

口⑨⑧口
口⑨⑪⑦
口⑫口⑩ |⑦⑧⑨-|
口⑫口⑩ |⑩⑪⑫-|
37
④②④① |①---|
口③口口 |②③④-|
②口①口
口口口口

口口口口
⑤口口⑥
⑪⑦⑧口 |⑤⑥⑦⑧|
⑩⑨口⑩ |⑨-⑩⑪|
38
②口口① |①---|
③口①口 |--②③|
⑩⑥④⑧ |④⑤⑥⑦|
⑪⑦⑤⑨ |⑧⑨⑩⑪|
39
⑥⑦④① |①②③④|
⑧⑤②③ |⑤⑥⑦⑧|
⑪⑨⑬⑯ |⑨⑩⑪⑫|
⑩⑫⑮⑭ |⑬⑭⑮⑯|
40
①口①口 |①---|
②①口① |--②-|
口口口口
口②口口

口口④③
口口⑥⑤
口口口口 |----|
口口口口 |③④⑤⑥|
41
口口口口 |①②③④|
口口口口 |⑤⑥⑦⑧|
⑥②①⑤
⑧④③⑦

⑫⑪口口
⑩⑨口口
口⑯⑮口 |⑨⑩⑪⑫|
口⑭⑬口 |⑬⑭⑮⑯|
42
口口③① |①---|
口②口口 |②③-④|
④口口①
口口口口

口⑨口口
⑧口⑩口
口⑥口⑪ |⑤⑥⑦-|
⑦口⑤口 |⑧⑨⑩⑪|
43
③口④口 |①-②-|
口①口② |③-④-|
③口④口
口①口②

⑧口口⑦
口口⑤口
口⑥口口 |⑤⑥⑦-|
⑦口口⑧ |-⑧--|
44
口③口口 |①-②-|
口④②① |③---|
③②口口 |④---|
④口①口 |----|
45
口口口口 |①②③④--|
④③②① |⑤⑥⑦⑧--|
⑤⑥⑦⑧
口口口口

口口口⑬
口口⑬口
口口口口 |⑨⑩⑪⑫--|
⑫⑪⑩⑨ |⑬---|
46
②⑤口口 |①-②③|
③口口④ |④-⑤-|
④①①③
口口⑤②

⑨口⑥⑨
口⑧⑦口
口口口口 |⑥-⑦-|
⑦⑥口⑧ |⑧-⑨-|
47
口口口口 |①②③④|
⑤口口⑥ |⑤⑥⑦⑧|
①⑦⑧②
口③④口

口⑨⑩口
口口⑪口
⑪口口口 |⑨-⑩-|
⑩⑪⑪⑨ |⑪---|
48
①口口② |①②③④|
③①口口 |⑤⑥-⑦|
口⑥口④
⑤⑦口口

口口口口
口口⑫⑨
⑧口⑩⑪ |⑧-⑨⑩|
口口口口 |-⑪⑫-|
49
①⑦⑧② |①②③④|
⑪⑮⑯⑫ |⑤⑥⑦⑧|
⑨⑬⑭⑩ |⑨⑩⑪⑫|
③⑤⑥④ |⑬⑭⑮⑯|
50
①①口口 |①---|
口口口口 |②③④⑤|
⑤口④口
口③口②

口⑬口⑫
⑪口⑩口
口⑨口⑧ |⑥⑦⑧⑨|
⑦口⑥口 |⑩⑪⑫⑬|
51
②口①口 |①②③④|
口④口③ |⑤⑥⑦⑧|
⑥口⑤⑨ |⑨---|
口⑧⑨⑦ |----|
52
①口口① |①---|
口②②口 |②③-④|
口口③口
②口④②

口口口口
⑥⑨口口
⑧⑦口⑤ |⑤-⑥⑦|
口口口口 |-⑧⑨-|
53
②⑧⑦① |①②③④|
⑫⑯⑮⑪ |⑤⑥⑦⑧|
⑩⑭⑬⑨ |⑨⑩⑪⑫|
④⑥⑤③ |⑬⑭⑮⑯|
54
①②①② |①---|
口③④⑤ |②---|
⑦④③⑥ |③-④-|
⑧⑧口口 |⑤⑥⑦⑧|
55
②①④③ |----|
口④口④ |①-②③|
④③②口 |----|
口口口口 |④---|
56
③④⑪⑫ |①②③④|
⑤⑧⑬⑯ |⑤⑥⑦⑧|
⑦⑥⑮⑭ |⑨⑩⑪⑫|
①②⑨⑩ |⑬⑭⑮⑯|
57
①⑧口口 |①②③④--|
②⑦口口 |⑤⑥⑦⑧--|
③⑥口口
④⑤口口

⑬口⑨口
⑮口⑩⑭
⑭口⑪⑮ |⑨⑩⑪⑫--|
口口⑫⑬ |⑬-⑭-⑮-|
58
口口口① |①---|
口口口口 |----|
口口口口 |----|
①口口口 |----|

accuracy: 100%
最終更新:2022年05月06日 04:03