アットウィキロゴ
Trill auf G
BEMANI Sound Team "dj TAKA"

EXTREME

Level: 10.5
BPM:188
Notes(hold): 772(95)

1
口口口口 |----|
口口口口 |----|
口口口口 |----|
口口口口 |----|
2
口口口③ |----|
口口口口 |----|
口①口② |①-②-|
口口口口 |③-④-|

④④口口
口口口口
口口口口
口∧口口
3
口①口口 |----|
口口口① |----|
口口②口 |--①-|
口③口口 |②-③-|
4
口口V口 |①---|
口口② |----|
①口口< |②---|
口口③口 |--③-|

口口口口
口口口③
②口口口
口口口口
5
口口口口 |----|
口②③口 |--①-|
①口口④ |②-③-|
口口①口 |④-⑤-|

口口口口
口口⑤
口口口口
口口口口
6
口口口口 |----|
口③口① |①---|
口口②口 |②-③-|
口①口< |--④-|

口口口④
口口口口
口口口口
口②口∧
7
②口③① |----|
口口口口 |----|
①口∧口 |--①-|
口口口口 |②-③-|
8
口口①口 |----|
①口口口 |①-②-|
口②口口 |--③-|
口口口③ |--④-|

V口口口
口口口口
④口口口
口口口口
9
口⑥口 |----|
口⑤③口 |①②③-|
④②①口 |④---|
口④④口 |⑤-⑥-|
10
③④①② |--①-|
①>④口 |--②-|
③<>② |--③-|
①<口口 |--④-|

口口口口
口口口口
④口口③
②口口口
11
口口④ |----|
③口①口 |----|
口口口口 |①-②-|
口②口口 |③-④-|
12
①口口① |----|
口①口< |----|
口口口口 |①---|
口口口口 |--②-|

口口口口
口②口口
口>口②
口口②口
13
①②口 |----|
①>口② |----|
口口口① |①---|
口口口口 |--②-|

口②口口
口口口口
口口口口
口口口口
14
口口V口 |----|
口口②① |----|
①口口② |①---|
口①口< |--②-|

口口口口
口口口口
口口口口
口②口口
15
口口口口 |----|
口①①② |----|
口口口口 |--①-|
口口③口 |②-③-|
16
①<口口 |①---|
③<口口 |②---|
口口口口 |③---|
口口口口 |④---|

②口口口
④口口口
口口口口
口口口口
17
口⑦口口 |①-②-|
口口②⑥ |③④--|
①口口< |⑤--⑥|
①④③⑤ |--⑦-|
18
⑤口②① |①②--|
③⑥口口 |③--④|
口口⑦口 |--⑤-|
口④口口 |⑥-⑦-|
19
⑦⑧口口 |①-②-|
口口②⑥ |③④--|
①口口口 |⑤--⑥|
①④③⑤ |-⑦⑧-|
20
⑤口②① |①②--|
③⑨口⑧ |③--④|
口⑦口⑥ |--⑤-|
口④口口 |⑥⑦⑧⑨|
21
口口口⑥ |①-②-|
口口②口 |③④--|
①⑨⑧⑦ |⑤--⑥|
①④③⑤ |-⑦⑧⑨|
22
口口口⑥ |①-②-|
口口②口 |③④--|
①⑨⑧⑦ |⑤--⑥|
①④③⑤ |-⑦⑧⑨|
23
③⑥②⑦ |①②--|
⑤⑧④① |③--④|
①口口口 |⑤⑥--|
①口口口 |⑦--⑧|
24
口口②口 |①②--|
口⑥⑤① |③--④|
③口⑦口 |--⑤-|
口口④口 |⑥-⑦-|
25
①③⑤① |①---|
①口口① |②③--|
⑥口口⑦ |④⑤--|
口②④口 |⑥⑦--|
26
口④⑥口 |①②--|
①口口② |③④--|
⑦口口⑧ |⑤⑥--|
口③⑤口 |⑦⑧--|
27
②④口口 |①②--|
⑦⑩⑥口 |③④-⑤|
⑪⑧⑤口 |⑥-⑦⑧|
①③⑨口 |⑨-⑩⑪|
28
②④口口 |①②--|
⑦⑩⑥口 |③④-⑤|
⑪⑧⑤口 |⑥-⑦⑧|
①③⑨口 |⑨-⑩⑪|
29
⑧⑩⑫⑪ |①②③④|
⑨⑬⑦⑥ |⑤-⑥⑦|
口⑭⑤③ |⑧⑨⑩-|
①②口④ |⑪⑫⑬⑭|
30
⑤口口口 |①-②③|
口口口④ |④⑤⑥⑦|
③口口口 |⑧⑨⑩⑪|
⑦①⑥② |⑫⑬⑭⑮|

口⑪⑫⑩
⑨⑬⑧口
口口⑭口
口⑮口口
31
⑩⑦⑨⑤ |①---|
⑥⑪④⑧ |②③④⑤|
口③⑫① |⑥⑦⑧⑨|
②口口⑬ |⑩⑪⑫⑬|
32
口口口口 |①---|
口口口V |--②-|
①<口② |--③-|
口③④口 |④---|

口口口口
口口口口
②口口④
口口口口
33
口③①口 |①---|
口口口口 |②---|
口②④口 |③---|
④口口② |④---|
34
②<>① |①-②-|
④<>③ |③-④-|
⑥<>⑤ |⑤-⑥-|
⑧口>⑦ |⑦-⑧-|

③口口②
⑤口口④
⑦口口⑥
口口口⑧
35
口①②口 |①②③④|
口③④⑤ |⑤-⑥⑦|
口⑧⑨⑩ |⑧⑨⑩-|
⑪⑥⑦⑫ |⑪-⑫-|
36
①>② |①-②-|
③>④ |③-④-|
⑤<⑥< |⑤-⑥-|
⑦<⑧口 |⑦-⑧-|

口②口③
口④口⑤
⑥口⑦口
⑧口口口
37
①②⑦⑥ |①②③④|
③④⑤⑧ |⑤-⑥⑦|
⑬⑭口⑨ |⑧⑨⑩-|
⑪⑫口⑩ |⑪⑫⑬⑭|
38
②③口口 |①-②③|
④⑤⑥口 |④⑤⑥-|
口口①口 |⑦⑧⑨⑩|
口口口口 |⑪⑫⑬⑭|

口口口口
口口口口
⑬⑭⑫⑪
⑨⑩⑧⑦
39
④口②⑤ |①②③④|
口③口① |⑤-⑥⑦|
口口口口 |⑧⑨⑩-|
口口⑦⑥ |⑪⑫⑬⑭|

口口口口
口口⑭⑬
⑪⑫口⑩
⑨⑧口口
40
①②③④ |①②③④|
⑨⑩⑭⑬ |⑤⑥⑦⑧|
⑯⑮⑪⑫ |⑨⑩⑪⑫|
⑧⑦⑥⑤ |⑬⑭⑮⑯|
41
⑦⑤③① |①-②③|
口口口口 |-④⑤-|
口口口口 |⑥⑦-⑧|
∧∧∧∧ |⑨⑩⑪⑫|

⑧⑥④②
口口口口
口⑩⑨口
口⑫⑪口
42
⑨⑤⑫⑥ |--①②|
①⑬④⑧ |③④⑤⑥|
⑦口⑩⑭ |⑦⑧⑨⑩|
③⑪口② |⑪⑫⑬⑭|
43
口口⑥口 |①--②|
①口③④ |--③-|
口②⑦口 |④-⑤-|
∧口①⑤ |⑥-⑦-|
44
口口⑥口 |①--②|
①口③④ |--③-|
口②⑦口 |④-⑤-|
口口①⑤ |⑥-⑦-|
45
口口⑥口 |①--②|
口口③④ |--③-|
口②⑦口 |④-⑤-|
口口①⑤ |⑥-⑦-|
46
口口口⑤ |①②-③|
③口⑥口 |④-⑤⑥|
口④口① |-⑦⑧-|
口口②口 |⑨-⑩-|

口口口口
口口口⑨
⑦口口口
口⑧⑩口
47
①口⑤口 |----|
②口口口 |①②③④|
③⑥口口 |⑤---|
④口口口 |⑥---|
48
⑧⑥④② |①②--|
口口口口 |③④--|
口口口口 |⑤⑥--|
⑦⑤③① |⑦⑧--|
49
⑧口>① |①-②-|
⑦②< |③-④-|
⑥<>③ |⑤-⑥-|
⑤④< |⑦-⑧-|

口口口②
口⑧③口
⑦口口④
口⑥⑤口
50
⑩⑧①② |①②③④|
⑦口③⑨ |--⑤⑥|
口口④口 |-⑦⑧-|
口口⑥⑤ |⑨-⑩-|
51
口④①⑤ |①--②|
④口③口 |--③-|
②⑥⑤① |-④--|
⑥②口③ |⑤--⑥|
52
口口口口 |--①-|
口口口① |-②--|
②口口口 |③--④|
口②①口 |⑤⑥⑦⑧|

④口③口
⑤口口⑧
口⑥⑦③
口口口口
53
口②口① |①-②③|
口④③口 |④-⑤⑥|
口口口口 |⑦-⑧⑨|
口口⑥⑤ |⑩-⑪⑫|

口口⑫口
口口口⑪
⑧⑨口⑦
⑩口口口
54
⑦⑥口① |①-②③|
⑤③④口 |④-⑤⑥|
口口②⑩ |⑦-⑧⑨|
⑪⑫⑨⑧ |⑩-⑪⑫|
55
口口①口 |①---|
口口②口 |②---|
①口<口 |③---|
口口口口 |④---|

口口口口
④>口③
③口口口
口口口口
56
①口<口 |①---|
口口口① |②---|
口②口口 |③---|
口口口口 |④---|

③口口③
口口口口
口口口∧
口口④口
57
⑤<⑥① |①-②-|
①<②口 |③-④-|
③<④口 |⑤-⑥-|
⑦<⑧口 |⑦-⑧-|

⑥口口口
②口口口
④口口口
⑧口口口
58
口⑥>⑤ |①-②-|
口②>① |③-④-|
口④>③ |⑤-⑥-|
口⑧>⑦ |⑦-⑧-|

口口口⑥
口口口②
口口口④
口口口⑧
59
V口口口 |①---|
①③②口 |②---|
①④①口 |③---|
∧口口口 |④---|
60
口③口④ |①---|
①③②口 |②---|
①④①口 |③---|
口口口口 |④---|
61
⑤口口口 |①---|
④③②口 |②---|
③⑤①① |③-④-|
口口口口 |⑤---|
62
口④①口 |①---|
口③②口 |②---|
口④①口 |③---|
口③②口 |④---|
63
口口⑤① |①---|
口④口口 |②---|
③口口口 |③-④-|
①口②口 |⑤---|
64
①⑧⑦口 |①-②-|
∧⑤⑥口 |③-④-|
口④③② |⑤-⑥-|
口口口① |⑦-⑧-|

⑦口口口
口口口口
口口口口
口口口口
65
口口口① |①---|
口口口口 |②③④⑤|
②③④⑤ |⑥---|
①口口口 |⑦⑧⑨⑩|

⑦⑧⑨⑩
口口口口
口口口口
口⑥⑥口
66
口口口⑤ |①---|
②①①② |②---|
口③口④ |③-④-|
②口口② |⑤-⑥-|

⑥⑥⑥口
口口口口
口口口口
口∧口口
67
口①口口 |----|
口口口① |----|
口口②口 |--①-|
口③口口 |②-③-|
68
口口V② |①---|
③>口③ |②---|
①口口< |③---|
④④④① |--④-|

口口口口
口口口④
③口口口
口口口口
69
①②口口 |--①-|
口④⑤口 |②-③-|
③口口⑥ |④-⑤-|
口口③口 |⑥-⑦-|

口口口口
口口⑦
口口口口
口口口口
70
口口口口 |----|
口③口① |①---|
口口②口 |②-③-|
口①口< |--④-|

口口④④
口口口口
口口口口
口②口∧
71
④⑤⑤③ |--①-|
口口口口 |②---|
③①∧口 |--③-|
口口②口 |④-⑤-|
72
口口①口 |----|
①口口口 |①-②-|
口②口口 |--③-|
口口口③ |--④-|

V口口口
口口口口
④口口口
④口口口
73
口⑥口 |----|
口⑤③口 |①②③-|
④②①口 |④---|
口④④口 |⑤-⑥-|
74
③④①② |--①-|
①>④口 |--②-|
③<>② |--③-|
①<口口 |--④-|

口口口口
口口口口
④口口③
②口口口
75
口口⑥ |--①-|
⑤口③口 |②---|
口①口口 |③-④-|
口④②口 |⑤-⑥-|
76
②③口② |----|
口②口< |①---|
口>口④ |②-③-|
④口④① |--④-|

口口口口
口④口口
口口口口
口口口口
77
③⑤口 |--①-|
③>口⑤ |②---|
①口口③ |③---|
④②口口 |④-⑤-|

口⑤口口
口口口口
口口口口
口口口口
78
①口V④ |----|
口口④② |①---|
②口③④ |②-③-|
口②口< |--④-|

口口口口
口口口口
口口口口
口④口口
79
①②口口 |--①-|
口⑤③⑥ |②-③-|
口口口口 |④-⑤-|
④口⑦口 |⑥-⑦-|
80
①<口V |①---|
③<口⑥ |②---|
口口⑥口 |③-④-|
④口口⑥ |⑤-⑥-|

②口口口
⑤口口口
口口口口
口口口口
81
①②口口 |--①-|
⑤口④③ |②-③-|
口口V口 |④-⑤-|
⑥口⑦口 |⑥-⑦-|
82
口①口④ |----|
口③②④ |①---|
口②③④ |②-③-|
口口①∧ |--④-|
83
①口口口 |----|
②⑧⑤口 |①②③④|
③口口① |⑤-⑥-|
④⑦⑥口 |⑦-⑧-|
84
②口①① |----|
③口口口 |①---|
口口①① |----|
口口口口 |--②③|
85
⑬③⑦口 |①②③④|
口④⑧⑫ |⑤⑥⑦⑧|
①⑤⑨口 |⑨⑩⑪-|
②⑥⑩⑪ |⑫-⑬-|
86
口口口口 |----|
口口口② |-①--|
口口口口 |----|
口①口口 |-②--|
87
口①口口 |----|
①口口口 |----|
口口口口 |----|
∧口口口 |①---|
88
口口口口 |--①-|
口口口口 |--②-|
口③口④ |--③-|
口②口① |--④-|
89
②口③口 |--①-|
②口口① |----|
口口口口 |②---|
口口口口 |---③|
90
①口口V |----|
口②口口 |----|
口口③口 |①②③④|
口口口④ |----|
91
口口口口 |----|
口口口口 |----|
口口口口 |----|
口口口口 |----|
92
口口口口 |----|
口口口口 |----|
口口口口 |----|
口口口口 |----|
93
口口口口 |----|
口口口口 |----|
口口口口 |----|
口口口口 |----|
94
口口口口 |----|
口口口口 |----|
口口口口 |---①|
口口口① |----|
最終更新:2019年11月04日 16:59