アットウィキロゴ
BLACK JACKAL
Akira Complex

EXTREME

Level: 4
BPM: 150
Notes: 223

1
口口口口 |----|
口口口口 |----|
口口口口 |----|
口口口口 |----|
2
口①口口 |①---|
口口口口 |----|
口口口口 |----|
口口口口 |----|
3
口口①口 |①---|
口口口口 |----|
口口口口 |----|
口口口口 |----|
4
口口口口 |①---|
口口①口 |----|
口口口口 |----|
口口口口 |----|
5
口口口口 |①---|
口①口口 |----|
口口口口 |----|
口口口口 |----|
6
口口口口 |①---|
口口口口 |----|
口①口口 |----|
口口口口 |----|
7
口口口口 |①---|
口口口口 |----|
口口①口 |----|
口口口口 |----|
8
口口口口 |①---|
口口口口 |----|
口口口口 |----|
口口①口 |----|
9
口口口口 |①---|
口口口口 |----|
口口口口 |----|
口①口口 |----|
10
口口口口 |①---|
口②②口 |----|
口①①口 |②---|
口口口口 |----|
11
口口口① |①---|
口口口② |②---|
口口口③ |③---|
口口④口 |④---|
12
口口口口 |①---|
口②②口 |----|
口①①口 |②---|
口口口口 |----|
13
口口口④ |①---|
口口口③ |②---|
口口口② |③---|
口口①口 |④---|
14
口口口口 |①---|
口②②口 |----|
口①①口 |②---|
口口口口 |----|
15
①口口口 |①---|
②口口口 |②---|
③口口口 |③---|
口④口口 |④---|
16
口口口口 |①---|
口②②口 |----|
口①①口 |②---|
口口口口 |----|
17
口口口口 |①---|
③口口口 |②---|
②口口口 |③---|
口①口口 |----|
18
口口口口 |①---|
口口口口 |----|
口①①口 |②---|
口②②口 |----|
19
口口口口 |①---|
②口口口 |----|
①口口口 |②---|
口口口口 |----|
20
口口口口 |①---|
口口口口 |----|
口①①口 |②---|
口②②口 |----|
21
口口口口 |①---|
口口口② |----|
口口口① |②---|
口口口口 |----|
22
口口口口 |①---|
口口口口 |----|
口①①口 |②---|
口②②口 |----|
23
口口口口 |①---|
②口口口 |----|
①口口口 |②---|
口口口口 |----|
24
口①口口 |①---|
口口②口 |----|
口口口口 |②---|
口口口口 |----|
25
口口口口 |①---|
口口口口 |----|
口①口口 |②---|
口口②口 |----|
26
口口口口 |①---|
口口口口 |----|
口①①口 |②---|
口②②口 |----|
27
口口口口 |①---|
口口③② |----|
口口口① |②---|
口口口口 |③---|
28
口口口口 |①---|
口口口口 |----|
口①①口 |②---|
口②②口 |----|
29
口口口口 |①---|
②③口口 |----|
①口口口 |②---|
口口口口 |③---|
30
口口口口 |①---|
口口口口 |----|
口①①口 |②---|
口②②口 |----|
31
口口口口 |①---|
口口③② |----|
口口口① |②---|
口口口口 |③---|
32
口口①口 |①---|
口②口口 |----|
口口口口 |②---|
口口口口 |----|
33
口口口口 |①---|
口口口口 |----|
口口①口 |②---|
口②口口 |----|
34
口③④口 |①---|
②口口口 |②---|
①口口口 |③---|
口口口口 |④---|
35
口口口口 |①---|
口口口① |②---|
口口口② |③---|
口④③口 |④---|
36
口③④口 |①---|
②口口口 |②---|
①口口口 |③---|
口口口口 |④---|
37
口口口口 |①---|
口口口① |②---|
口口口② |③---|
口口③口 |----|
38
口口口口 |①---|
口口口口 |----|
口①①口 |----|
口口口口 |----|
39
口口口口 |----|
口口口口 |----|
口口口口 |----|
口口口口 |----|
40
口口口口 |①---|
口①①口 |----|
口口口口 |----|
口口口口 |----|
41
口口口口 |①---|
①口口② |----|
口口口口 |②---|
口口口口 |----|
42
口口口口 |①---|
口口口口 |----|
口①①口 |----|
口口口口 |----|
43
口口口口 |----|
口口口口 |----|
口口口口 |----|
口口口口 |----|
44
口口口口 |①---|
口①①口 |----|
口口口口 |----|
口口口口 |----|
45
口口口口 |①---|
②口口① |----|
口口口口 |②---|
口口口口 |----|
46
口口口口 |①---|
口②②口 |----|
口①①口 |②---|
口口口口 |----|
47
①口口口 |①---|
②口口口 |②---|
③口口口 |③---|
口④口口 |④---|
48
口口口口 |①---|
口②②口 |----|
口①①口 |②---|
口口口口 |----|
49
④口口口 |①---|
③口口口 |②---|
②口口口 |③---|
口①口口 |④---|
50
口口口口 |①---|
口②②口 |----|
口①①口 |②---|
口口口口 |----|
51
口口口① |①---|
口口口② |②---|
口口口③ |③---|
口口④口 |④---|
52
口口口口 |①---|
口②②口 |----|
口①①口 |②---|
口口口口 |----|
53
③口口③ |①---|
口口口口 |--②-|
②②①① |----|
口口口口 |③---|
54
口口口口 |①---|
口③④口 |②---|
口②①口 |③---|
口口口口 |④---|
55
③口口① |①---|
口口口口 |②---|
口④②口 |③---|
口口口口 |④---|
56
口口口口 |①---|
口①①口 |----|
口口口口 |②---|
口②②口 |----|
57
口口口口 |①---|
口③②口 |②---|
④口口① |③---|
口口口口 |④---|
58
口口口口 |①---|
口④③口 |②---|
口①②口 |③---|
口口口口 |④---|
59
①口口③ |①---|
口口口口 |②---|
口②④口 |③---|
口口口口 |④---|
60
口口口口 |①---|
口①①口 |----|
口口口口 |②---|
口②②口 |----|
61
口②③口 |①---|
①口口④ |②---|
口口口口 |③---|
口口口口 |④---|
62
口口口口 |①---|
②口口④ |②---|
口③③口 |③---|
口①①口 |④---|
63
口①①口 |①---|
口③③口 |②---|
口②④口 |③---|
口口口口 |④---|
64
口口口口 |①---|
①口口② |----|
①口口② |②---|
口口口口 |----|
65
口口口口 |①---|
口②③口 |②---|
①口口④ |③---|
口口口口 |④---|
66
口口口口 |①---|
④口口② |②---|
口③③口 |③---|
口①①口 |④---|
67
口①①口 |①---|
口③③口 |②---|
口④②口 |③---|
口口口口 |④---|
68
口口口口 |①---|
②口口① |----|
②口口① |②---|
口口口口 |----|
69
口③②口 |①---|
④口口① |②---|
口口口口 |③---|
口口口口 |④---|
70
口口口口 |①---|
口①①口 |----|
口①①口 |----|
口口口口 |----|

accuracy: 100%
最終更新:2022年04月19日 11:55