アットウィキロゴ
BLACK JACKAL
Akira Complex

ADVANCED

Level: 6
BPM: 150
Notes: 402

1
口口口口 |----|
口口口口 |----|
口口口口 |----|
口口口口 |----|
2
口口口口 |----|
口口口口 |--①-|
①口②口 |----|
口口口口 |--②-|
3
口口口口 |----|
口口口口 |--①-|
①口②口 |----|
口口口口 |--②-|
4
口口②口 |--①-|
口口①口 |--②-|
口口③口 |----|
口口口口 |--③-|
5
口口口口 |----|
口口口口 |--①-|
①②口口 |----|
口口口口 |--②-|
6
口口口口 |----|
口口口口 |--①-|
口②口① |----|
口口口口 |--②-|
7
口口口口 |----|
口口口口 |--①-|
口②口① |----|
口口口口 |--②-|
8
口②口口 |--①-|
口①口口 |--②-|
口③口口 |----|
口口口口 |--③-|
9
口口口口 |----|
口口口口 |--①-|
口口口① |----|
口口口口 |----|
10
口⑤口⑥ |①---|
①口④② |②-③④|
口③口口 |⑤---|
口口口口 |⑥---|
11
①口④口 |①-②-|
③口②口 |③-④-|
口⑤口⑥ |⑤-⑥-|
口⑦口口 |⑦---|
12
②口口① |①---|
口口③口 |②-③④|
口④口口 |⑤---|
⑥口⑤口 |⑥---|
13
口口口口 |①---|
口口口③ |②-③-|
口②口口
口口口①

口口口口
口④口口
口口口⑤ |④-⑤-|
口⑥口⑦ |⑥-⑦-|
14
口⑤口⑥ |①---|
①口④② |②-③④|
口③口口 |⑤---|
口口口口 |⑥---|
15
①口④口 |①-②-|
③口②口 |③-④-|
口⑤口⑥ |⑤-⑥-|
口⑦口口 |⑦---|
16
②口口① |①---|
口口③口 |②-③④|
口④口口 |⑤---|
⑥口⑤口 |⑥---|
17
⑤口口⑤ |①---|
口口口③ |②-③-|
口②④口 |④---|
口④口① |⑤---|
18
口①口口 |①---|
①口口口 |----|
口口口② |②---|
口口②口 |----|
19
③口口③ |①---|
口口口口 |----|
口②①口 |②---|
②口口① |③---|
20
口口①口 |①---|
口口口① |----|
②口口口 |②---|
口②口口 |----|
21
口口口口 |①---|
口口口口 |----|
口①口口
①口口口

口口口口
口口口口
③口②口 |②-③-|
⑤口④② |④-⑤-|
22
口口①口 |①---|
口口口① |----|
②口口口 |②---|
口②口口 |----|
23
③口口③ |①---|
口口口口 |----|
口①②口 |②---|
①口口② |③---|
24
口口③口 |①---|
②④口① |②-③④|
⑥口⑤口 |⑤---|
口口口口 |⑥---|
25
③口口口 |①---|
②口④① |②-③-|
⑤口⑥口 |④-⑤-|
⑦口口口 |⑥-⑦-|
26
口口①口 |①---|
口口口① |----|
②口口口 |②---|
口②口口 |----|
27
口口口口 |①---|
口③④口 |----|
口①②口 |②-③-|
①口口② |④---|
28
口①口口 |①---|
①口口口 |----|
口口口② |②---|
口口②口 |----|
29
口口口口 |①---|
口口口口 |----|
口口①口
口口口①

口口口口
口口口口
口②口③ |②-③-|
②④口⑤ |④-⑤-|
30
口①口口 |①---|
①口口口 |----|
口口口② |②---|
口口②口 |----|
31
③口口③ |①---|
口口口口 |----|
口②①口 |②---|
②口口① |③---|
32
口③口口 |①---|
①口④② |②-③④|
口⑤口⑥ |⑤---|
口口口口 |⑥---|
33
口口口③ |①---|
①④口② |②-③-|
口⑥口⑤ |④-⑤-|
口口口⑦ |⑥-⑦-|
34
口口口口 |①---|
口口口④ |②---|
口口口③ |③---|
口①②口 |④---|
35
口②①口 |①---|
③口口口 |②---|
④口口口 |③---|
口口口口 |④---|
36
口口口口 |①-②-|
⑧口口⑦ |③-④-|
⑥②④⑤ |⑤-⑥-|
口①③口 |⑦-⑧-|
37
⑥③①⑥ |①-②-|
口④②口 |③-④-|
口口⑤口 |⑤---|
口⑤口口 |⑥---|
38
口口②② |①---|
口口口口 |----|
口口口口 |②---|
口口①① |----|
39
口口口口 |①---|
口口③② |②---|
口口④① |③---|
口口口口 |④---|
40
口口①① |①---|
口口口口 |----|
口口口口 |②---|
口口②② |----|
41
口口口口 |①---|
口口①② |②---|
口口④③ |③---|
口口口口 |④---|
42
②②口口 |①---|
口口口口 |----|
口口口口 |②---|
①①口口 |----|
43
口口口口 |①---|
②③口口 |②---|
①④口口 |③---|
口口口口 |④---|
44
①①口口 |①---|
口口口口 |----|
口口口口 |②---|
②②口口 |----|
45
③④口口 |①---|
②①口口 |②---|
口口口口 |③---|
口口口口 |④---|
46
口⑤口⑥ |①---|
①口④② |②-③④|
口③口口 |⑤---|
口口口口 |⑥---|
47
①口④口 |①-②-|
③口②口 |③-④-|
口⑤口⑥ |⑤-⑥-|
口⑦口口 |⑦---|
48
②口口① |①---|
口口③口 |②-③④|
口④口口 |⑤---|
⑥口⑤口 |⑥---|
49
口口口口 |①---|
口口口③ |②-③-|
口②口口
口口口①

口口口口
口④口口
口口口⑤ |④-⑤-|
口⑥口⑦ |⑥-⑦-|
50
口⑤口⑥ |①---|
①口④② |②-③④|
口③口口 |⑤---|
口口口口 |⑥---|
51
①口④口 |①-②-|
③口②口 |③-④-|
口⑤口⑥ |⑤-⑥-|
口⑦口口 |⑦---|
52
②口口① |①---|
口口③口 |②-③④|
口④口口 |⑤---|
⑥口⑤口 |⑥---|
53
⑤口口⑥ |①--②|
②④④① |--③-|
口②①口 |--④-|
口③③口 |⑤-⑥-|
54
口⑤口⑥ |①---|
①口④② |②-③④|
①③口② |⑤---|
口口口口 |⑥---|
55
①口口口 |①-②-|
口②⑤④ |③-④-|
口⑥③口 |⑤-⑥-|
⑦口口口 |⑦---|
56
②口口口 |①---|
②口③口 |②-③④|
⑥④口① |⑤---|
⑥口⑤① |⑥---|
57
口③口口 |①---|
口②④口 |②-③-|
口⑥⑤① |④-⑤-|
口⑦口① |⑥-⑦-|
58
⑥口⑤口 |①---|
②④口① |②-③④|
②口③① |⑤---|
口口口口 |⑥---|
59
口口口① |①-②-|
④⑤②口 |③-④-|
口③⑥口 |⑤-⑥-|
口口口⑦ |⑦---|
60
口口口② |①---|
口③口② |②-③④|
①口④⑥ |⑤---|
①⑤口⑥ |⑥---|
61
口④③口 |①---|
口⑤②口 |②-③-|
①⑥口口 |④-⑤-|
①口口口 |⑥---|
62
⑥口⑤口 |①---|
②④口① |②-③④|
⑥口③口 |⑤---|
②口口① |⑥---|
63
口口口① |①-②-|
④⑤②口 |③-④-|
口③⑥① |⑤-⑥-|
口口口⑦ |⑦---|
64
②口②口 |①---|
口③口⑥ |②-③④|
口口④口 |⑤---|
①⑤①⑥ |⑥---|
65
口口③口 |①---|
①④②口 |②-③-|
口⑤⑥口 |④-⑤-|
①口⑦口 |⑥-⑦-|
66
口⑤口⑥ |①---|
①口④② |②-③④|
口③口⑥ |⑤---|
①口口② |⑥---|
67
①口口口 |①-②-|
口②⑤④ |③-④-|
①⑥③口 |⑤-⑥-|
⑦口口口 |⑦---|
68
口②口② |①---|
⑥口③口 |②-③④|
口④口口 |⑤---|
⑥①⑤① |⑥---|
69
口③④口 |①---|
口②⑤① |②-③-|
口口⑥口 |④-⑤-|
口口口① |⑥---|
70
①口口① |①---|
①口口① |----|
口口口口 |----|
口口口口 |----|

accuracy: 100%
最終更新:2022年04月19日 12:07