アットウィキロゴ
BLACK JACKAL
Akira Complex

EXTREME

Level: 9.6
BPM: 150
Notes: 736

1
口口口口 |----|
口口口口 |----|
口口口口 |----|
口口口口 |----|
2
⑧⑧④④ |①-②-|
⑥口口② |③-④-|
口①①⑤ |⑤-⑥-|
③①①⑦ |⑦-⑧-|
3
⑧⑧④④ |①-②-|
⑥口口② |③-④-|
①口口⑤ |⑤-⑥-|
③口口⑦ |⑦-⑧-|
4
⑧⑧④④ |①-②-|
⑥口②② |③-④-|
①口口⑤ |⑤-⑥-|
③口口⑦ |⑦-⑧-|
5
⑧⑧④④ |①-②-|
⑥口口② |③-④-|
①口口⑤ |⑤-⑥-|
③口口⑦ |⑦-⑧-|
6
⑧⑧④④ |①-②-|
⑥口口② |③-④-|
口①①⑤ |⑤-⑥-|
③①①⑦ |⑦-⑧-|
7
⑧⑧④④ |①-②-|
⑥口口② |③-④-|
①口口⑤ |⑤-⑥-|
③口口⑦ |⑦-⑧-|
8
⑧⑧④④ |①-②-|
⑥口②② |③-④-|
①口口⑤ |⑤-⑥-|
③口口⑦ |⑦-⑧-|
9
口口④④ |①-②-|
⑥口⑦② |③-④-|
①⑧口⑤ |⑤-⑥-|
③口口口 |⑦⑧--|
10
口口口② |①---|
③①④口 |②-③④|
口口①口
②口口口

⑤口口口
口口口口
口⑥⑥口 |⑤---|
口口口口 |⑥---|
11
④口⑥① |①-②-|
⑦⑤⑦⑤ |③-④-|
④口⑥① |⑤-⑥-|
③②③② |⑦---|
12
②⑥口① |①---|
⑥⑥口口 |②-③④|
④口③口 |⑤---|
①口⑤② |⑥---|
13
④口①口 |①---|
⑤④①① |②-③-|
⑥口②② |④-⑤-|
⑦⑥②③ |⑥-⑦-|
14
②口口口 |①---|
口④①③ |②-③④|
口①口口
口口口②

口口口⑤
口口口口
口⑥⑥口 |⑤---|
口口口口 |⑥---|
15
①⑥口④ |①-②-|
⑤⑦⑤⑦ |③-④-|
①⑥口④ |⑤-⑥-|
②③②③ |⑦---|
16
①口⑥② |①---|
口口⑥⑥ |②-③④|
口③口④ |⑤---|
②⑤口① |⑥---|
17
口①口⑦ |①---|
①①⑥⑤ |②---|
②②④③ |③④⑤⑥|
口②口⑧ |⑦-⑧-|
18
口②口口 |①--②|
口④口口 |-③④-|
①①③口
①①口口

口口⑤⑤
口口⑤⑤
⑥⑥口口 |⑤---|
⑥⑥口口 |⑥---|
19
①口⑥③ |--①②|
口②④口 |-③④-|
口口口口 |⑤---|
口口⑥⑤ |⑥---|
20
口②口口 |①--②|
口④口口 |-③④-|
①①③口
①①口口

口口⑤⑤
口口⑤⑤
⑥⑥口口 |⑤---|
⑥⑥口口 |⑥---|
21
①⑥口④ |-①②③|
⑧②⑤口 |-④⑤-|
口⑦③口 |⑥-⑦-|
⑨口口口 |⑧-⑨-|
22
口口②口 |①--②|
口口④口 |-③④-|
口③①①
口口①①

⑤⑤口口
⑤⑤口口
口口⑥⑥ |⑤---|
口口⑥⑥ |⑥---|
23
④⑦口① |-①②③|
口⑤②口 |-④⑤-|
口③口口 |⑥---|
⑥⑦口口 |⑦---|
24
口口①② |①---|
口⑥⑥口 |②-③④|
③口②① |⑤---|
口④⑤口 |⑥---|
25
③②①口 |①---|
④口口口 |②-③-|
⑤①②口 |④-⑤-|
⑥⑦口口 |⑥-⑦-|
26
口口②口 |①--②|
口口④口 |-③④-|
口③①①
口口①①

⑤⑤口口
⑤⑤口口
口口⑥⑥ |⑤---|
口口⑥⑥ |⑥---|
27
④⑧口① |-①②③|
⑦⑤②口 |-④⑤-|
口③口口 |⑥-⑦-|
⑥⑧口口 |⑧---|
28
口口②口 |①--②|
口口④口 |-③④-|
口③①①
口口①①

⑤⑤口口
⑤⑤口口
口口⑥⑥ |⑤---|
口口⑥⑥ |⑥---|
29
④口⑥① |-①②③|
口⑤②⑧ |-④⑤-|
口③⑦口 |⑥-⑦-|
口口口⑨ |⑧-⑨-|
30
口②口口 |①--②|
口④口口 |-③④-|
①①③口
①①口口

口口⑤⑤
口口⑤⑤
⑥⑥口口 |⑤---|
⑥⑥口口 |⑥---|
31
①口⑦④ |-①②③|
口②⑤口 |-④⑤-|
口口③口 |⑥---|
口口⑦⑥ |⑦---|
32
②①口口 |①---|
口⑥⑥口 |②-③④|
①②口③ |⑤---|
口⑤④口 |⑥---|
33
口①②③ |①---|
口口口④ |②-③-|
口②①⑤ |④-⑤-|
口口⑦⑥ |⑥-⑦-|
34
⑦⑦②口 |①-②-|
⑤⑤④口 |③-④-|
③③⑥口 |⑤-⑥-|
①①⑧口 |⑦-⑧-|
35
口⑧①① |①-②-|
口⑥③③ |③-④-|
口④⑤⑤ |⑤-⑥-|
口②⑦⑦ |⑦-⑧-|
36
⑤口口① |①-②-|
口④③② |③-④-|
⑥⑦⑧口 |⑤-⑥-|
①口口⑤ |⑦-⑧-|
37
口口口① |①-②-|
口口口② |③-④-|
口口口③
①口口④

⑨口口口
⑦⑧口口
⑤⑥口口 |⑤⑥⑦⑧|
⑩口口口 |⑨-⑩-|
38
⑥口口⑤ |①---|
口④口③ |②-③④|
口口口口 |⑤---|
口①①② |⑥---|
39
口口⑥⑤ |①-②-|
口口⑦口 |③-④-|
①口口④ |⑤-⑥-|
②口口③ |⑦---|
40
①口口② |①---|
口口口⑥ |②-③④|
口③口④ |⑤---|
口⑤口口 |⑥---|
41
口口口④ |①---|
①口口⑤ |②-③-|
口口口⑥ |④-⑤-|
③②口⑦ |⑥-⑦-|
42
⑤口口⑥ |①---|
③口④口 |②-③④|
口口口口 |⑤---|
②①①口 |⑥---|
43
⑤⑥口口 |①-②-|
口⑦口口 |③-④-|
④口口① |⑤-⑥-|
③口口② |⑦---|
44
②口口① |①---|
⑥口口口 |②-③④|
④口③口 |⑤---|
口口⑤口 |⑥---|
45
④口口口 |①---|
⑤口口① |②-③-|
⑥口口口 |④-⑤-|
⑦口②③ |⑥-⑦-|
46
②口口口 |①---|
口④①③ |②-③④|
口①口口
口口口②

口口口⑤
口口口口
口⑥⑥口 |⑤---|
口口口口 |⑥---|
47
①⑥口④ |①-②-|
⑤⑦⑤⑦ |③-④-|
①⑥口④ |⑤-⑥-|
②③②③ |⑦---|
48
①口⑥② |①---|
口口⑥⑥ |②-③④|
口③口④ |⑤---|
②⑤口① |⑥---|
49
口①口④ |①---|
①①④⑤ |②-③-|
②②口⑥ |④-⑤-|
③②⑥⑦ |⑥-⑦-|
50
口口口② |①---|
③①④口 |②-③④|
口口①口
②口口口

⑤口口口
口口口口
口⑥⑥口 |⑤---|
口口口口 |⑥---|
51
④口⑥① |①-②-|
⑦⑤⑦⑤ |③-④-|
④口⑥① |⑤-⑥-|
③②③② |⑦---|
52
②⑥口① |①---|
⑥⑥口口 |②-③④|
④口③口 |⑤---|
①口⑤② |⑥---|
53
③⑤口① |①--②|
④口⑤④ |--③-|
②⑤口② |--④-|
③口⑤① |⑤---|
54
⑥⑤③② |①---|
口①口口 |②-③④|
口口①口 |⑤---|
⑥口④② |⑥---|
55
口⑤③① |①-②-|
⑥⑥④② |③-④-|
⑦⑦④② |⑤-⑥-|
口⑤③① |⑦---|
56
②⑥口① |①---|
⑥⑥口口 |②-③④|
④口③口 |⑤---|
①口⑤② |⑥---|
57
口④①③ |①---|
⑥⑤①① |②-③-|
⑦口⑥⑤ |④-⑤-|
②口⑦④ |⑥-⑦-|
58
②③⑤⑥ |①---|
口口①口 |②-③④|
口①口口 |⑤---|
②④口⑥ |⑥---|
59
①③⑤口 |①-②-|
②④⑥⑥ |③-④-|
②④⑦⑦ |⑤-⑥-|
①③⑤口 |⑦---|
60
①口⑥② |①---|
口口⑥⑥ |②-③④|
口③口④ |⑤---|
②⑤口① |⑥---|
61
③①④口 |①---|
①①⑤⑥ |②-③-|
⑤⑥口口 |④-⑤-|
④口口② |⑥---|
62
⑥⑤③② |①---|
口①③口 |②-③④|
口⑤①口 |⑤---|
⑥口④② |⑥---|
63
口⑤③① |①-②-|
⑦⑥④② |③-④-|
⑥⑦④② |⑤-⑥-|
口⑤③① |⑦---|
64
②⑥口① |①---|
⑥⑥口② |②-③④|
④口③① |⑤---|
①口⑤② |⑥---|
65
口④①③ |①---|
⑥⑤①① |②-③-|
⑦口⑥⑤ |④-⑤-|
②口⑦④ |⑥-⑦-|
66
②③⑤⑥ |①---|
口③①口 |②-③④|
口①⑤口 |⑤---|
②④口⑥ |⑥---|
67
①③⑤口 |①-②-|
②④⑥⑦ |③-④-|
②④⑦⑥ |⑤-⑥-|
①③⑤口 |⑦---|
68
①口⑥② |①---|
②口⑥⑥ |②-③④|
①③口④ |⑤---|
②⑤口① |⑥---|
69
③①④口 |①---|
①①⑤⑥ |②-③-|
⑤⑥口口 |④-⑤-|
④口口② |⑥---|
70
口①口口 |①---|
①口口口 |----|
口口①口 |----|
口口口① |----|

accuracy: 100%
最終更新:2022年04月19日 14:46