アットウィキロゴ
voltississimo
BEMANI Sound Team "PHQUASE"

BASIC

Level: 4
BPM : 225
Notes: 277

1
口口口口 |----|
口口口口 |----|
口口口口 |----|
口口口口 |----|
2
口口口口 |----|
口口口口 |----|
口口口口 |----|
口口口口 |----|
3
口口口口 |①---|
口口口口 |----|
口口口口 |----|
口①①口 |----|
4
口口口口 |----|
口口口口 |----|
口口口口 |----|
口口口口 |----|
5
口口口口 |①---|
②口口② |----|
口①①口 |----|
口口口口 |--②-|
6
口口口口 |----|
口口口口 |----|
口口口口 |----|
口口口口 |----|
7
口口口口 |①---|
口口口口 |----|
口口口口 |----|
口①①口 |----|
8
口口口口 |----|
口口口口 |----|
口口口口 |----|
口口口口 |----|
9
口口口口 |①---|
②口口② |----|
口①①口 |----|
口口口口 |--②-|
10
口口口口 |----|
口口口口 |----|
①口口① |①---|
口口口口 |----|
11
口口口口 |①---|
口口口口 |----|
口口②口 |②---|
口口口① |----|
12
口口口口 |①---|
口①口口 |----|
口②②口 |②---|
口口口口 |----|
13
口口口口 |①---|
口口口口 |----|
口②口口 |②---|
①口口口 |----|
14
口②②口 |①---|
口口①口 |----|
口口口口 |②---|
口口口口 |----|
15
①口口口 |①---|
口②口口 |----|
口口口口 |②---|
口口口口 |----|
16
口口口口 |①---|
口②②口 |----|
口口①口 |②---|
口口口口 |----|
17
口口口① |①---|
口口②口 |----|
口口口口 |②---|
口口口口 |----|
18
口口口口 |①---|
②口口② |----|
口①口口 |②---|
口口口口 |----|
19
口口①口 |①---|
口②②口 |----|
口口口口 |②---|
口口口口 |----|
20
口口口口 |①---|
口口口口 |----|
口口①口 |②---|
口②②口 |----|
21
口口口口 |①---|
口②②口 |----|
口①口口 |②---|
口口口口 |----|
22
①口口① |①---|
口口口口 |----|
口口口口 |----|
口口口口 |----|
23
口①口口 |①---|
口②②口 |----|
口口口口 |②---|
口口口口 |----|
24
口口口口 |①---|
口口口口 |----|
口①口口 |②---|
口②②口 |----|
25
口口口口 |①---|
口口口口 |----|
①口口① |----|
口②②口 |--②-|
26
口口口口 |----|
①口口① |--①-|
口口口口 |----|
口口口口 |----|
27
口①口口 |①---|
口②②口 |----|
口口口口 |②---|
口口口口 |----|
28
口口口口 |①---|
口口口口 |----|
口①口口 |②---|
口②②口 |----|
29
口口口口 |①---|
口②②口 |----|
口口①口 |②---|
口口口口 |----|
30
①口口① |①---|
口口口口 |----|
口口口口 |----|
口口口口 |----|
31
口口口口 |①---|
①口口口 |----|
②②口口 |②---|
口口口口 |----|
32
口口口口 |①---|
口口②② |----|
口口口① |②---|
口口口口 |----|
33
口口口口 |①---|
口口口口 |----|
①①①① |----|
口口口口 |----|
34
口口口口 |----|
口口口口 |----|
口口口口 |----|
口口口口 |----|
35
口口口口 |----|
①口③口 |①---|
口②口口 |-②--|
口口口口 |--③-|
36
口口口口 |---①|
口口口口 |----|
口口口① |②---|
口②②口 |----|
37
口口口口 |--①-|
口口口口 |---②|
①③②口 |----|
口口口口 |③---|
38
口口口口 |-①--|
口②②口 |----|
口口口① |②---|
口口口口 |----|
39
口口口口 |----|
口③口① |①---|
口口②口 |-②--|
口口口口 |--③-|
40
口口口口 |---①|
口口口口 |----|
①口口口 |②---|
口②②口 |----|
41
口口口口 |--①-|
口口口口 |---②|
口②③① |----|
口口口口 |③---|
42
口口口口 |-①--|
口②②口 |----|
①口口口 |②---|
口口口口 |----|
43
口口口口 |①---|
口口口口 |----|
口口口口 |----|
口①①口 |----|
44
口口口口 |----|
口口口口 |----|
口口口口 |----|
口口口口 |----|
45
口口口口 |①---|
口口口口 |----|
口①①口 |----|
口口口口 |----|
46
口口口口 |①---|
①口口① |----|
口口口口 |----|
口口口口 |----|
47
口口口口 |①---|
口口口口 |----|
口口口口 |----|
口①①口 |----|
48
口口口口 |----|
口口口口 |----|
口口口口 |----|
口口口口 |----|
49
口口口口 |----|
口口口口 |----|
口口口口 |----|
口口口口 |----|
50
口口口口 |①---|
口口口口 |----|
口口口口 |----|
口①①口 |----|
51
口口口口 |①---|
②口口口 |----|
①口口口 |②---|
口口口口 |----|
52
口口口口 |①---|
口口口口 |----|
口口口口 |----|
口①①口 |----|
53
口口口口 |①---|
口口口① |----|
口口口② |②---|
口口口口 |----|
54
口口口口 |①---|
口口口口 |----|
口口口口 |----|
口①①口 |----|
55
口口口口 |①---|
②口口口 |----|
①口口口 |②---|
口口口口 |----|
56
口口口口 |①---|
口口口口 |----|
②口口② |----|
口①①口 |--②-|
57
口口口口 |----|
①口②① |--①-|
口②口口 |----|
口口口口 |--②-|
58
口口口口 |----|
口口口口 |----|
口口口口 |----|
口口口口 |----|
59
口口口口 |----|
口口口口 |----|
口口口口 |----|
口口口口 |----|
60
口口口口 |①---|
口口口口 |----|
口②②口 |②---|
①口口口 |----|
61
口口口口 |①---|
口②②口 |----|
口口口口 |②---|
口口口① |----|
62
口口②② |①---|
口口口口 |----|
①①口口 |②---|
口口口口 |----|
63
①①口口 |①---|
口口口口 |----|
口口②② |②---|
口口口口 |----|
64
①口口口 |①---|
口②②口 |----|
口口口口 |②---|
口口口口 |----|
65
口口口① |①---|
口口口口 |----|
口②②口 |②---|
口口口口 |----|
66
口口口口 |①---|
②口口② |----|
①口口① |②---|
口口口口 |----|
67
①①①① |①---|
口口口口 |----|
口口口口 |----|
口口口口 |----|
68
口口口口 |①---|
口口口口 |----|
口②②口 |②---|
口口口① |----|
69
口口口口 |①---|
口②②口 |----|
口口口口 |②---|
①口口口 |----|
70
口口口口 |①---|
口口口口 |----|
口口口口 |----|
口①①口 |----|
71
口口口口 |①---|
②口口① |--②-|
②口口① |----|
口口口口 |----|
72
口口口① |①---|
口②②口 |----|
口口口口 |②---|
口口口口 |----|
73
①口口口 |①---|
口口口口 |----|
口②②口 |②---|
口口口口 |----|
74
口口口口 |①---|
②口口② |----|
①口口① |②---|
口口口口 |----|
75
口口口口 |①---|
口②②口 |----|
口①①口 |②---|
口口口口 |----|
76
①①①① |①---|
口口口口 |----|
②②口口 |----|
口口口口 |--②-|
77
②②口口 |----|
口口①① |--①-|
口口口口 |----|
口口口口 |--②-|
78
口口口口 |----|
口口口口 |----|
口口口口 |----|
口口口口 |----|
79
口口口口 |----|
口口口口 |----|
口口口口 |----|
口口口口 |----|
80
口口口口 |①---|
口口①口 |----|
口①②② |----|
口口口口 |--②-|
81
口口②② |----|
①①口口 |--①-|
口口口口 |----|
口口口口 |--②-|
82
口口口口 |----|
②②①① |--①-|
口口口口 |----|
口口口口 |--②-|
83
①①口口 |----|
口口口口 |--①-|
口口口口 |----|
口口口口 |----|
84
口口口口 |①---|
口口①口 |----|
口①②② |----|
口口口口 |--②-|
85
口口②② |----|
①①口口 |--①-|
口口口口 |----|
口口口口 |--②-|
86
①口口口 |----|
①口口口 |----|
口口口口 |----|
口口口口 |--①-|
87
口口口口 |----|
口口口口 |----|
口口口口 |----|
口口口口 |----|
88
口口①口 |①---|
口①口口 |----|
口口②口 |----|
口②口口 |--②-|
89
口口口口 |----|
①口口① |----|
①口口① |----|
口口口口 |--①-|
90
口口口口 |----|
口口口口 |----|
口口口口 |----|
口口口口 |----|
91
口口口口 |----|
口口口口 |----|
口口口口 |----|
口口口口 |----|
92
口口口口 |①---|
口口口口 |----|
口②口口 |②---|
①口口口 |----|
93
口口口口 |①---|
口口①口 |----|
口②②口 |②---|
口口口口 |----|
94
口口口口 |①---|
口口口口 |----|
口口②口 |②---|
口口口① |----|
95
口②②口 |①---|
口①口口 |----|
口口口口 |②---|
口口口口 |----|
96
口口口① |①---|
口口②口 |----|
口口口口 |②---|
口口口口 |----|
97
口口口口 |①---|
口②②口 |----|
口①口口 |②---|
口口口口 |----|
98
①口口口 |①---|
口②口口 |----|
口口口口 |②---|
口口口口 |----|
99
口口口口 |①---|
②口口② |----|
口口①口 |②---|
口口口口 |----|
100
口口口口 |①---|
口口口口 |----|
口②③口 |②---|
①口口① |③---|
101
口口口口 |①---|
③②①口 |②---|
口口口口 |③---|
口口口口 |----|
102
口口口口 |①---|
口口口口 |----|
口③②口 |②---|
①口口① |③---|
103
口口口口 |①---|
口①②③ |②---|
口口口口 |③---|
口口口口 |----|
104
①口口口 |----|
②口口口 |①---|
③口口口 |②---|
口口口口 |③---|
105
口口口口 |①---|
口口口口 |②---|
口口口口 |③---|
①②③④ |④---|
106
口口④③ |①---|
口口口② |②---|
口口口① |③---|
口口口口 |④---|
107
②①口口 |①---|
口口口口 |②---|
口③③口 |----|
口③③口 |--③-|

accuracy: 100%
最終更新:2022年05月10日 17:11