アットウィキロゴ
voltississimo
BEMANI Sound Team "PHQUASE"

ADVANCED

Level: 7
BPM : 225
Notes: 470

1
口口口口 |----|
口口口口 |----|
口口口口 |----|
口口口口 |----|
2
口口口口 |----|
口口口口 |----|
口口口口 |----|
口口口口 |----|
3
口口口口 |①---|
③①④口 |②---|
口口②口 |③---|
口口口口 |--④-|
4
口口口口 |--①-|
口口口口 |----|
口①③口 |②---|
口口口② |③---|
5
口口口口 |①---|
口④①③ |②---|
口②口口 |③---|
口口口口 |--④-|
6
②口口口 |--①-|
口口口口 |----|
口口①口 |②---|
口口口口 |----|
7
口口口口 |①---|
口④①③ |②---|
口②口口 |③---|
口口口口 |--④-|
8
口口口口 |--①-|
口口口口 |----|
口③①口 |②---|
②口口口 |③---|
9
口口口口 |①---|
③①④④ |②---|
口口②口 |③---|
口口口口 |--④-|
10
②口口② |--①-|
口口口口 |----|
①①口口 |②---|
口口口口 |----|
11
口口口口 |①---|
口②③口 |②---|
口④①口 |③---|
口口口口 |④---|
12
口口口口 |①---|
口②口口 |②---|
口口①口 |③---|
口③③口 |----|
13
口口口口 |①---|
口②③口 |②---|
口④①口 |③---|
口口口口 |④---|
14
口③③口 |①---|
口②口口 |②---|
口口①口 |③---|
口口口口 |----|
15
口口口口 |①---|
②口口③ |②---|
④口口① |③---|
口口口口 |④---|
16
口口口口 |①---|
②口口口 |②---|
口口口① |③---|
口③③口 |----|
17
口口口口 |①---|
②口口③ |②---|
④口口① |③---|
口口口口 |④---|
18
口口口口 |①---|
口①①口 |----|
口口口口 |②---|
口②②口 |----|
19
①口口口 |①---|
②③④口 |②---|
口口口口 |③---|
口口口口 |④---|
20
口口口口 |①---|
口口口口 |②---|
口②①口 |③---|
口③④口 |④---|
21
口④③口 |①---|
②口口① |----|
②口口① |②---|
口口口口 |③-④-|
22
口口口口 |----|
口口口口 |----|
口口口口 |----|
口口口口 |----|
23
口口口① |①---|
口④③② |②---|
口口口口 |③---|
口口口口 |④---|
24
口口口口 |①---|
口口口口 |②---|
口①②口 |③---|
口④③口 |④---|
25
口口口口 |①---|
①①②② |--②-|
口口口口 |----|
③口口③ |--③-|
26
①口口① |----|
口口口口 |--①-|
口口口口 |----|
口口口口 |----|
27
口①②口 |①---|
口④③口 |②---|
口口口口 |③---|
口口口口 |④---|
28
口口口口 |①---|
口口口口 |②---|
口①②口 |③---|
口④③口 |④---|
29
口口④口 |①---|
①③②口 |----|
①口口口 |--②-|
口口口口 |③-④-|
30
口口口口 |----|
口口口口 |----|
口口口口 |----|
口口口口 |----|
31
①口口② |①---|
④口口③ |②---|
口口口口 |③---|
口口口口 |④---|
32
口口口口 |①---|
口③③口 |②---|
①④④② |③---|
口口口口 |④---|
33
口口口口 |①---|
口口口口 |--②-|
②口口③ |----|
口①①口 |③---|
34
口口口③ |--①-|
①口口② |----|
口口口口 |②---|
口口口口 |③---|
35
①①口口 |----|
口口②② |①---|
③③口口 |-②--|
口口口口 |--③-|
36
口口口口 |---①|
口②口口 |----|
口口②口 |②---|
口口①① |----|
37
①①口口 |--①-|
口口②② |---②|
③③口口 |----|
口口口口 |③---|
38
④③口口 |-①--|
口②口口 |----|
口口口口 |②--③|
口口①① |--④-|
39
口口①① |----|
②②口口 |①---|
口口③③ |-②--|
口口口口 |--③-|
40
口口口口 |---①|
口口②口 |----|
口②口口 |②---|
①①口口 |----|
41
口口①① |--①-|
②②口口 |---②|
口口③③ |----|
口口口口 |③---|
42
口口③④ |-①--|
口口②口 |----|
口口口口 |②--③|
①①口口 |--④-|
43
口口口口 |①---|
③①④口 |②---|
口口②口 |③---|
口口口口 |--④-|
44
口口口口 |--①-|
口口口口 |----|
口①③口 |②---|
口口口② |③---|
45
口口口口 |①---|
口④①③ |②---|
口②口口 |③---|
口口口口 |--④-|
46
②口口口 |--①-|
口口口口 |----|
口口①口 |②---|
口口口口 |----|
47
口口口口 |①---|
口④①③ |②---|
口②口口 |③---|
口口口口 |--④-|
48
口口口口 |----|
口口口口 |--①-|
口口口口 |----|
口口口① |----|
49
口口口口 |----|
口口口口 |----|
口口口口 |----|
口口口口 |----|
50
①口口口 |①---|
④口⑤口 |②---|
③口口② |③-④-|
口口口口 |--⑤-|
51
口口口口 |--①-|
④口口口 |②---|
口口口口 |③---|
①②口③ |④---|
52
口口口① |①---|
口⑤口④ |②---|
②口口③ |③-④-|
口口口口 |--⑤-|
53
口口口口 |--①-|
口口口口 |--②-|
口口①口 |③---|
②③口④ |④---|
54
①口口口 |①---|
④口⑤口 |②---|
③口口② |③-④-|
口口口口 |--⑤-|
55
口口口口 |--①-|
④口口口 |②---|
口口口口 |③---|
①②口③ |④---|
56
口口口① |①---|
口口口④ |②---|
②口口③ |③-④-|
口⑤⑤口 |--⑤-|
57
①口口① |--①-|
口③④口 |--②-|
口④③口 |--③-|
②口口② |--④-|
58
口口口口 |----|
口口口口 |----|
口口口口 |①---|
口①①口 |----|
59
口①①口 |①---|
口口口口 |----|
口②②口 |②---|
口口口口 |----|
60
口③口口 |①---|
①口③口 |②---|
①口口口 |③---|
口②②口 |----|
61
口口③口 |①---|
口③口① |②---|
口口口① |③---|
口②②口 |----|
62
口①口口 |①---|
口口③口 |②---|
口口②口 |③---|
口④口口 |④---|
63
②口口② |①---|
口口口口 |--②-|
①③③① |----|
口口口口 |③---|
64
③口口口 |①---|
①③口口 |②---|
①口口口 |③---|
口②②口 |----|
65
口口口③ |①---|
口口③① |②---|
口口口① |③---|
口②②口 |----|
66
口①①口 |①---|
口③③口 |②---|
口②②口 |③---|
口④④口 |④---|
67
口口口口 |①---|
①口口① |----|
口口口口 |----|
口口口口 |----|
68
口口②口 |①---|
口②口① |----|
口口口① |②---|
口口口口 |----|
69
口②口口 |①---|
①口②口 |----|
①口口口 |②---|
口口口口 |----|
70
口口口口 |①---|
口口口口 |----|
口口口口 |----|
口①①口 |----|
71
口③③口 |①---|
口口口口 |--②-|
②口口① |----|
②口口① |③---|
72
口口口③ |①---|
口口③① |②---|
口口口① |③---|
口②②口 |----|
73
③口口口 |①---|
①③口口 |②---|
①口口口 |③---|
口②②口 |----|
74
口①①口 |①---|
口③③口 |②---|
口②②口 |③---|
口④④口 |④---|
75
口④④口 |①---|
①口口① |②---|
口③③口 |③---|
②口口② |④---|
76
口口口口 |①---|
口①①口 |----|
口口口② |②-③-|
④口③口 |--④-|
77
④④④④ |--①-|
口②③口 |--②-|
①口口口 |--③-|
口口口口 |--④-|
78
口口口口 |----|
①口口口 |----|
口口口口 |①---|
口口口口 |----|
79
口口口口 |①---|
口口口口 |----|
口口口① |②---|
②口口口 |----|
80
口口口口 |----|
口口口口 |----|
口口口① |①-②-|
③口②口 |--③-|
81
口口口口 |--①-|
口②③口 |--②-|
①口口口 |--③-|
口④④口 |--④-|
82
口口口口 |----|
口口口口 |--①-|
口②②口 |----|
①口口① |--②-|
83
①①①① |----|
口口口口 |--①-|
口口口口 |----|
口口口口 |----|
84
口口口口 |----|
口口口口 |----|
①口口口 |①-②-|
口②口③ |--③-|
85
④④④④ |--①-|
口③②口 |--②-|
口口口① |--③-|
口口口口 |--④-|
86
口口①口 |----|
口口口① |----|
口口口口 |----|
口口口口 |--①-|
87
口口口口 |----|
口口口口 |----|
口口口口 |----|
口口口口 |----|
88
口口②口 |①---|
口口口② |----|
①③口口 |②---|
③①口口 |--③-|
89
①口口① |----|
口①①口 |----|
口②②口 |①---|
②口口② |--②-|
90
口口口口 |----|
①口口① |----|
①口口① |----|
口口口口 |--①-|
91
口口口口 |----|
口口口口 |----|
口口口口 |----|
口口口口 |----|
92
口口口口 |①---|
口②③口 |②---|
口④①口 |③---|
口口口口 |④---|
93
口口口口 |①---|
口②口口 |②---|
口口①口 |③---|
口③③口 |----|
94
口口口口 |①---|
口②③口 |②---|
口④①口 |③---|
口口口口 |④---|
95
口③③口 |①---|
口②口口 |②---|
口口①口 |③---|
口口口口 |----|
96
口口口口 |①---|
②口口③ |②---|
④口口① |③---|
口口口口 |④---|
97
口口口口 |①---|
②口口口 |②---|
口口口① |③---|
口③③口 |----|
98
口口口口 |①---|
②口口③ |②---|
④口口① |③---|
口口口口 |④---|
99
③①①③ |①---|
口口口口 |②---|
口口口口 |③---|
④②②④ |④---|
100
口口口口 |①---|
口②③③ |②---|
④④①口 |③---|
口口口口 |④---|
101
口②口口 |①---|
口②口口 |②---|
口口①口 |③---|
③口①③ |----|
102
口口口口 |①---|
口②③③ |②---|
④④①口 |③---|
口口口口 |④---|
103
③②口③ |①---|
口②口口 |②---|
口口①口 |③---|
口口①口 |----|
104
口口口口 |----|
口⑥⑤口 |①-②-|
口④③口 |③-④-|
口②①口 |⑤-⑥-|
105
④②①③ |①-②-|
⑥口口⑤ |③-④-|
⑧口口⑦ |⑤-⑥-|
口口口口 |⑦-⑧-|
106
口口口口 |①-②-|
口⑧⑦口 |③-④-|
口⑥⑤口 |⑤-⑥-|
②④③① |⑦-⑧-|
107
②口口① |①-②-|
⑥⑦⑦③ |③---|
口⑦⑦③ |④-⑤-|
④口口⑤ |⑥-⑦-|

accuracy: 100%
最終更新:2022年05月12日 04:43