アットウィキロゴ
voltississimo
BEMANI Sound Team "PHQUASE"

EXTREME

Level: 10.3
BPM : 225
Notes: 833

1
口口口口 |----|
口口口口 |----|
口口口口 |----|
口口口口 |----|
2
口口口口 |----|
口口口口 |----|
口口口口 |----|
口口口口 |----|
3
③④口口 |①---|
口①口口 |②---|
口⑤口口 |③-④-|
口②口口 |--⑤-|
4
④口②口 |--①-|
口口口① |②---|
口口口口 |③---|
③口口口 |④---|
5
口口④③ |①---|
口口①口 |②---|
口口⑤口 |③-④-|
口口②口 |--⑤-|
6
口口口口 |--①-|
①口口⑤ |--②-|
口④口② |③---|
口口口③ |④-⑤-|
7
③④口口 |①---|
口①口口 |②---|
口⑤口口 |③-④-|
口②口口 |--⑤-|
8
④口②口 |--①-|
口口口① |②---|
口口口口 |③---|
③口口口 |④---|
9
口口④③ |①---|
口⑤①口 |②---|
口口⑤口 |③-④-|
口口②口 |--⑤-|
10
②口口③ |--①-|
口口①口 |--②-|
口①口口 |③---|
④③②④ |④---|
11
口口口口 |①-②-|
④③②① |③-④-|
⑧⑦⑥⑤ |⑤-⑥-|
口口口口 |⑦-⑧-|
12
④③②① |①-②-|
口口口口 |③-④-|
口口口口 |⑤-⑥-|
⑤⑦⑥⑧ |⑦-⑧-|
13
口口口口 |①-②-|
④③②① |③-④-|
⑧⑦⑥⑤ |⑤-⑥-|
口口口口 |⑦-⑧-|
14
④③②① |①-②-|
口口口口 |③-④-|
口口口口 |⑤--⑥|
⑤⑦⑦⑥ |--⑦-|
15
口口口口 |①-②-|
①②③④ |③-④-|
⑤⑥⑦⑧ |⑤-⑥-|
口口口口 |⑦-⑧-|
16
①②③④ |①-②-|
口口口口 |③-④-|
口口口口 |⑤-⑥-|
⑧⑥⑦⑤ |⑦-⑧-|
17
口口口口 |①-②-|
①②③④ |③-④-|
⑤⑥⑦⑧ |⑤-⑥-|
口口口口 |⑦-⑧-|
18
②①口② |①---|
①②口口 |②---|
口口口口 |③---|
③口口④ |④---|
19
③②口口 |①---|
口口口① |②---|
①口口口 |③-④-|
口④②⑤ |--⑤-|
20
④口④① |--①②|
口口②口 |③---|
口③口口 |④---|
⑤口⑥口 |⑤-⑥-|
21
口①⑧口 |①---|
①口⑤⑧ |-②③④|
口④③② |⑤-⑥-|
口⑦口⑥ |⑦-⑧-|
22
③口口② |①-②-|
口⑤⑦口 |③-④-|
①口⑥④ |⑤-⑥-|
口口口口 |⑦---|
23
③②口口 |①---|
口口口① |②---|
①口口口 |③-④-|
口④②⑤ |--⑤-|
24
④口④① |--①②|
口口②⑥ |③---|
口③口口 |④---|
口⑤口口 |⑤-⑥-|
25
⑤①⑥② |①---|
①③口⑥ |②-③-|
⑥口③① |--④-|
②⑥①④ |⑤-⑥-|
26
口③口口 |--①-|
③口②口 |②-③-|
口①口③ |----|
口口③口 |----|
27
口口①④ |①-②-|
口②口口 |③---|
③口③口 |④-⑤-|
⑥③⑤③ |--⑥-|
28
①④口④ |--①②|
口②口口 |③---|
口⑦③⑥ |④---|
口⑤口口 |⑤-⑥-⑦-|
29
口④①口 |①---|
④口口① |----|
口口口口 |--②-|
②口③口 |③-④-|
30
③口口③ |①-②-|
口②①口 |--③-|
⑤②①⑥ |--④-|
口口口④ |⑤-⑥-|
31
口口②③ |①---|
①口口② |②---|
口②口口 |③-④-|
⑤口④口 |--⑤-|
32
①④口④ |--①②|
口②口⑤ |③---|
口口③口 |④---|
口口口⑤ |⑤---|
33
②口口口 |①---|
口口②口 |--②-|
口口口③ |----|
①③①口 |③---|
34
③②①③ |--①-|
①口口② |----|
口口口口 |②---|
口口口口 |③---|
35
口口口口 |----|
⑧口⑦口 |①②③-|
⑤⑥④口 |-④⑤⑥|
②③①口 |--⑦⑧|
36
③④②⑤ |①--②|
口①口⑦ |③④--|
口口口⑥ |⑤-⑥-|
口口口⑧ |⑦-⑧-|
37
口口口口 |--①②|
⑦⑨⑧口 |③--④|
④⑥⑤口 |⑤⑥--|
①③②口 |⑦⑧⑨-|
38
①③②④ |-①②③|
⑧⑧口⑤ |--④⑤|
⑦口⑥⑥ |⑥--⑦|
⑦口口口 |--⑧-|
39
口口口口 |----|
口⑦口⑧ |①②③-|
口④⑥⑤ |-④⑤⑥|
口①③② |--⑦⑧|
40
⑤②④③ |①--②|
⑦口①口 |③④--|
⑥口口口 |⑤-⑥-|
⑧口口口 |⑦-⑧-|
41
口口口口 |--①②|
口⑧⑨⑦ |③--④|
口⑤⑥④ |⑤⑥--|
口②③① |⑦⑧⑨-|
42
④②③① |-①②③|
⑤口⑧⑧ |--④⑤|
⑥⑥口⑦ |⑥--⑦|
口口口⑦ |--⑧-|
43
③④口口 |①---|
口①口口 |②---|
口⑤①口 |③-④-|
口②口口 |--⑤-|
44
④口②口 |--①-|
口口口① |②---|
口口口口 |③---|
③口口口 |④---|
45
口口④③ |①---|
口口①口 |②---|
口口⑤口 |③-④-|
口口②口 |--⑤-|
46
口口口口 |--①-|
①口口⑤ |--②-|
口④口② |③---|
口口口③ |④-⑤-|
47
③④口口 |①---|
口①口口 |②---|
口口口口 |③-④-|
口②口口 |----|
48
口口口口 |①---|
口口口口 |--②-|
口口口口 |----|
②口口① |----|
49
口口口口 |----|
口口口口 |----|
口口口口 |----|
口口口口 |----|
50
③④口口 |①---|
①①口口 |②---|
③⑤口口 |③-④-|
②②口口 |--⑤-|
51
④④②口 |--①-|
口口口① |②---|
③口口口 |③---|
③口口① |④---|
52
口口④③ |①---|
⑤①①口 |②---|
口口⑤③ |③-④-|
口②②口 |--⑤-|
53
口口口口 |--①-|
口口①⑤ |--②-|
①④口口 |③---|
口口③② |④-⑤-|
54
③④口口 |①---|
①①口口 |②---|
③⑤口口 |③-④-|
②②口口 |--⑤-|
55
④④②口 |--①-|
口口口① |②---|
③口口口 |③---|
③口口① |④---|
56
口口④③ |①---|
⑤①①口 |②---|
口口⑤③ |③-④-|
口②②口 |--⑤-|
57
②④③④ |--①-|
口④①④ |--②-|
①口口口 |--③-|
③口②口 |--④-|
58
口口口口 |----|
口口口口 |----|
口口口口 |①---|
口口①① |----|
59
口口①① |①---|
口口口口 |----|
口口口口 |②---|
口口②② |----|
60
②⑤①③ |①-②-|
口④口口 |③---|
③⑥③① |④--⑤|
口④口口 |--⑥-|
61
⑤口④口 |①-②-|
②口①③ |③---|
⑥口④口 |④--⑤|
③口③① |--⑥-|
62
⑧口口① |①-②③|
⑥②口口 |④-⑤-|
口③⑩⑦ |⑥-⑦-|
口④⑨⑤ |⑧-⑨⑩|
63
口③口② |①--②|
口②①③ |--③-|
口口口口 |--④-|
⑤口口④ |⑤---|
64
②⑤①③ |①-②-|
口④口口 |③---|
③⑥③① |④--⑤|
口④口口 |--⑥-|
65
②口口口 |①-②③|
③口①⑦ |④-⑤⑥|
④口口⑥ |⑦--⑧|
⑧口⑨⑤ |--⑨-|
66
⑧口口口 |①-②③|
⑥②①⑨ |④-⑤-|
口③口⑦ |⑥-⑦-|
口④口⑤ |⑧-⑨-|
67
口①①① |①---|
③③③口 |②---|
口④④④ |③---|
②②②口 |④---|
68
①口④口 |①-②-|
口⑤口② |③---|
①口⑥口 |④--⑤|
口③口③ |--⑥-|
69
口④口① |①-②-|
②口⑤口 |③---|
口⑥口① |④--⑤|
③口③口 |--⑥-|
70
口口口口 |----|
口口口口 |----|
口口口口 |----|
口口口口 |----|
71
⑤③口④ |①--②|
⑥①口② |--③-|
⑦②口① |-④--|
⑧④口③ |⑤⑥⑦⑧|
72
口口③口 |----|
口①②① |①---|
口①④① |②--③|
口口②口 |--④-|
73
⑧①口口 |①-②③|
⑥口⑨⑦ |④⑤⑥⑦|
④口口⑤ |⑧--⑨|
②⑩口③ |--⑩-|
74
口口口口 |①-②-|
⑦⑤口⑧ |③-④-|
④①⑤⑥ |⑤-⑥-|
②口①③ |⑦-⑧-|
75
③①④② |①-②-|
⑦口①⑧ |③-④-|
⑧⑤⑥⑦ |⑤-⑥-|
口⑥⑤口 |⑦-⑧-|
76
②口口口 |①---|
口①①④ |----|
④③口口 |②-③-|
①口口① |--④-|
77
口②①口 |--①-|
③口④④ |--②-|
④④口③ |--③-|
口①②口 |--④-|
78
口口口① |--①-|
口②口口 |②-③-|
口口③⑦ |④-⑤-|
④⑥口⑤ |⑥-⑦-|
79
口③②口 |①-②-|
①⑤⑥④ |③-④-|
口⑥⑤口 |--⑤-|
口口口口 |⑥---|
80
口口口⑥ |①②③④|
⑧口口口 |⑤---|
⑤口⑦⑧ |⑥-⑦-|
①②③④ |--⑧-|
81
口①②口 |--①-|
④口④③ |--②-|
③④口④ |--③-|
口②①口 |--④-|
82
⑤①③④ |--①-|
⑥③⑥口 |②-③-|
口⑥③⑥ |--④-|
口③②口 |⑤-⑥-|
83
口②口口 |--①-|
口③口③ |②-③-|
③口③口 |----|
①口口口 |----|
84
⑥口口口 |①②③④|
口口口⑧ |⑤---|
⑧⑦口⑤ |⑥-⑦-|
④③②① |--⑧-|
85
口②①④ |--①-|
③口④口 |--②-|
口④口③ |--③-|
④①②口 |--④-|
86
⑦口①口 |--①-|
⑥②⑦口 |②-③-|
口⑦③⑤ |④-⑤-|
口④口⑦ |⑥-⑦-|
87
口口口口 |①--②|
口④口③ |--③-|
口口⑤口 |-④--|
①⑤②口 |⑤---|
88
②②①口 |①---|
①③①② |----|
①③口③ |②---|
口口口③ |--③-|
89
①口口② |----|
口②①② |----|
①口口② |①---|
口②①口 |--②-|
90
口①口口 |----|
①口口口 |----|
口口①口 |----|
口①口口 |--①-|
91
口口口口 |----|
口口口口 |----|
口口口口 |----|
口口口口 |----|
92
口口口口 |①-②-|
④③②① |③-④-|
⑧⑦⑥⑤ |⑤-⑥-|
口口口口 |⑦-⑧-|
93
④③②① |①-②-|
口口口口 |③-④-|
口口口口 |⑤-⑥-|
⑤⑦⑥⑧ |⑦-⑧-|
94
口口口口 |①-②-|
④③②① |③-④-|
⑧⑦⑥⑤ |⑤-⑥-|
口口口口 |⑦-⑧-|
95
④③②① |①-②-|
口口口口 |③-④-|
口口口口 |⑤--⑥|
⑤⑦⑦⑥ |--⑦-|
96
口口口口 |①-②-|
①②③④ |③-④-|
⑤⑥⑦⑧ |⑤-⑥-|
口口口口 |⑦-⑧-|
97
①②③④ |①-②-|
口口口口 |③-④-|
口口口口 |⑤-⑥-|
⑧⑥⑦⑤ |⑦-⑧-|
98
口口口口 |①-②-|
①②③④ |③-④-|
⑤⑥⑦⑧ |⑤-⑥-|
口口口口 |⑦-⑧-|
99
①②③④ |①---|
口口口口 |②---|
口口口口 |③---|
④③②① |④---|
100
口口口口 |①-②-|
④③②① |③-④-|
⑧⑦⑥⑤ |⑤-⑥-|
口口口口 |⑦-⑧-|
101
⑦⑤③① |①②③④|
⑧⑥④② |⑤⑥⑦⑧|
口口口口 |⑨-⑩-|
⑨⑪⑩⑫ |⑪-⑫-|
102
口⑥⑤口 |①-②-|
口⑩⑨口 |③-④-|
④③②① |⑤-⑥-⑦-|
口⑧⑦口 |⑧-⑨-⑩-|
103
⑤口⑩① |①②③④|
⑥口口② |⑤⑥⑦⑧|
⑦口⑨③ |⑨--⑩|
⑧口⑪④ |--⑪-|
104
①⑤⑨口 |----|
②⑥⑩口 |①②③④|
③⑦⑪口 |⑤⑥⑦⑧|
④⑧⑫口 |⑨⑩⑪⑫|
105
⑤⑨⑬① |①②③④|
⑥⑩⑭② |⑤⑥⑦⑧|
⑦⑪⑮③ |⑨⑩⑪⑫|
⑧⑫⑯④ |⑬⑭⑮⑯|
106
⑤⑨⑬① |①②③④|
⑥⑩⑭② |⑤⑥⑦⑧|
⑦⑪⑮③ |⑨⑩⑪⑫|
⑧⑫⑯④ |⑬⑭⑮⑯|
107
⑧⑤⑧① |①②③④|
⑥⑦口② |----|
⑦⑥口③ |⑤-⑥-|
⑤⑧口④ |⑦-⑧-|

accuracy: 100%
最終更新:2022年05月12日 05:15