アットウィキロゴ
ミッドナイト☆WAR
いちか

BASIC

Level: 4
BPM: 156
Notes: 248

1
口口口口 |----|
口口口口 |----|
口口口口 |----|
口口口口 |----|
2
口口口口 |①---|
口①①口 |----|
口口口口 |----|
口口口口 |----|
3
口口口口 |①---|
口口口口 |----|
口①①口 |----|
口口口口 |----|
4
口口口口 |①---|
口①①口 |----|
口②②口 |②---|
口口口口 |----|
5
口口口口 |①---|
②口口② |----|
口口口口 |②---|
口①①口 |----|
6
口口口口 |①---|
口口口口 |----|
口①口② |②---|
口口口口 |----|
7
口口口口 |①---|
口③②① |②---|
口口口口 |③---|
口口口口 |----|
8
口口口口 |①---|
口口口口 |----|
口①口② |②---|
口口口口 |----|
9
口口口口 |①---|
口口口口 |②---|
口口口口 |③---|
口③②① |----|
10
口口口口 |①---|
口口口口 |----|
②口①口 |②---|
口口口口 |----|
11
口口口口 |①---|
①②③口 |②---|
口口口口 |③---|
口口口口 |----|
12
口口口口 |①---|
口口口口 |----|
②口①口 |②---|
口口口口 |----|
13
口口口口 |①---|
口口口口 |②---|
口口口口 |③---|
①②③口 |----|
14
口口口口 |①---|
口口口口 |----|
口①①口 |----|
口口口口 |----|
15
口口口口 |①---|
口①①口 |----|
口口口口 |----|
口口口口 |----|
16
口口口口 |①---|
口口口口 |----|
口①①口 |----|
口口口口 |----|
17
②口口② |①---|
口①①口 |----|
口口口口 |②---|
口口口口 |----|
18
口口口口 |①---|
口①①口 |----|
口口口口 |----|
口口口口 |----|
19
口口口口 |①---|
口口口口 |----|
口①①口 |----|
口口口口 |----|
20
口口口口 |①---|
口①①口 |----|
口口口口 |----|
口口口口 |----|
21
口口口口 |①---|
②①①② |----|
②①①② |②---|
口口口口 |----|
22
①②③④ |①---|
口口口口 |②---|
口口口口 |③---|
口口口口 |④---|
23
口口口口 |①---|
④③②① |②---|
口口口口 |③---|
口口口口 |④---|
24
口口口口 |①---|
口口口口 |②---|
①②③④ |③---|
口口口口 |④---|
25
口口口口 |①---|
②①①② |----|
口口口口 |②---|
口口口口 |----|
26
口口①口 |①---|
口口②口 |②---|
口口③口 |③---|
口口④口 |④---|
27
口④口口 |①---|
口③口口 |②---|
口②口口 |③---|
口①口口 |④---|
28
口口口口 |①---|
②②①① |----|
口口口口 |②---|
口口口口 |----|
29
口口口口 |①---|
口口口口 |----|
口①①口 |----|
口口口口 |----|
30
口口口口 |①---|
口口口口 |----|
口口口口 |----|
①口口口 |----|
31
口口口口 |①---|
口口口口 |----|
口口口口 |----|
口口口① |----|
32
口口口口 |①---|
口口口口 |----|
①口口口 |----|
口口口口 |----|
33
口口口口 |①---|
口口口口 |----|
口口口① |----|
口口口口 |----|
34
口口口口 |①---|
①口口口 |----|
口口口口 |----|
口口口口 |----|
35
口口口口 |①---|
口口口① |----|
口口口口 |----|
口口口口 |----|
36
口①①口 |①---|
口口口口 |----|
口口口口 |----|
口口口口 |----|
37
口口口口 |①---|
口①①口 |----|
口口口口 |----|
口口口口 |----|
38
口口口口 |①---|
口③③口 |②---|
口口②口 |③---|
口口①口 |----|
39
口口口口 |①---|
口③③口 |②---|
口②口口 |③---|
口①口口 |----|
40
①口口① |①---|
②口口② |----|
口口口口 |②---|
口口口口 |----|
41
①①①① |①---|
口②②口 |----|
口②②口 |②---|
口口口口 |----|
42
口口口口 |①---|
口口口① |----|
口口口① |②---|
口②②口 |----|
43
口口口口 |①---|
①口③口 |②---|
口②口口 |③---|
口口口口 |----|
44
口口口口 |①---|
②②口口 |----|
①①口口 |②---|
口口口口 |----|
45
口口口口 |①---|
口口②② |----|
口口①① |②---|
口口口口 |----|
46
口②②口 |①---|
①口口口 |----|
①口口口 |②---|
口口口口 |----|
47
口③口① |①---|
口口②口 |②---|
口口口口 |③---|
口口口口 |----|
48
口口口口 |①---|
口②②口 |----|
口①①口 |②---|
口口口口 |----|
49
①①②② |①---|
口口口口 |②---|
口口口口 |----|
口口口口 |----|
50
口口口口 |①---|
①口口口 |----|
①口口口 |②---|
口②②口 |----|
51
口口口口 |①---|
口③口① |②---|
口口②口 |③---|
口口口口 |----|
52
口口口口 |①---|
口口②② |----|
口口①① |②---|
口口口口 |----|
53
口口口口 |①---|
②②口口 |----|
①①口口 |②---|
口口口口 |----|
54
口②②口 |①---|
口口口① |----|
口口口① |②---|
口口口口 |----|
55
①口③口 |①---|
口②口口 |②---|
口口口口 |③---|
口口口口 |----|
56
口口口口 |①---|
口口口口 |----|
口①①口 |----|
口口口口 |----|
57
口口口口 |①---|
②①①② |----|
②①①② |②---|
口口口口 |----|
58
①口口③ |①---|
口②④口 |②---|
口口口口 |③---|
口口口口 |④---|
59
口口口口 |①---|
①口口③ |②---|
口②④口 |③---|
口口口口 |④---|
60
口口口口 |①---|
口口口口 |②---|
③口口④ |③---|
①口口② |④---|
61
③口口③ |①---|
口①②口 |②---|
口口口口 |③---|
口口口口 |----|
62
口口口口 |①---|
②口口④ |②---|
口①③口 |③---|
口口口口 |④---|
63
②口口④ |①---|
口①③口 |②---|
口口口口 |③---|
口口口口 |④---|
64
口①口口 |①---|
口口②口 |②---|
口③口口 |③---|
口口④口 |④---|
65
口口口口 |①---|
③口口③ |②---|
口口②口 |③---|
口①口口 |----|
66
口口口口 |①---|
口口口口 |----|
口①①口 |----|
口口口口 |----|
67
口口口口 |①---|
口①①口 |----|
口口口口 |----|
口口口口 |----|
68
口口口口 |①---|
口口口口 |----|
口①①口 |----|
口口口口 |----|
69
②口口② |①---|
口①①口 |----|
口口口口 |②---|
口口口口 |----|
70
口①口口 |①---|
③口②口 |②---|
③口口口 |③---|
口④④口 |④---|
71
口口①口 |①---|
口②口③ |②---|
口口口③ |③---|
口④④口 |④---|
72
④口口④ |①---|
③口口③ |②---|
②口口② |③---|
①口口① |④---|
73
口口口口 |①---|
②①①② |----|
②①①② |②---|
口口口口 |----|

accuracy: 100%
最終更新:2022年04月24日 04:15