アットウィキロゴ
ミッドナイト☆WAR
いちか

ADVANCED

Level: 7
BPM: 156
Notes: 445

1
口口口口 |----|
口口口口 |----|
口口口口 |----|
口口口口 |----|
2
口口口口 |①---|
口①①口 |----|
口口口口 |----|
口口口口 |----|
3
口口口口 |①---|
口口口口 |----|
口①①口 |----|
口口口口 |----|
4
口①①口 |①---|
口②②口 |②---|
口③③口 |③---|
口④④口 |④---|
5
口口口口 |①---|
②②②② |----|
口口口口 |②---|
①口口① |----|
6
口①③口 |①---|
口口口口 |②---|
口②④口 |③---|
口口口口 |④---|
7
口口口① |①---|
③③④④ |②---|
口口口② |③---|
口口口口 |④---|
8
口③①口 |①---|
口口口口 |②---|
口④②口 |③---|
口口口口 |④---|
9
①口口口 |①---|
口口口口 |②---|
②口口口 |③---|
④④③③ |④---|
10
口③①口 |①---|
口口口口 |②---|
口④②口 |③---|
口口口口 |④---|
11
①口口口 |①---|
④④③③ |②---|
②口口口 |③---|
口口口口 |④---|
12
口①③口 |①---|
口口口口 |②---|
口②④口 |③---|
口口口口 |④---|
13
口口口① |①---|
口口口口 |②---|
口口口② |③---|
③③④④ |④---|
14
②口口口 |①---|
①③口① |②---|
口④④口 |③---|
口口口口 |④---|
15
口口口② |①---|
①口③① |②---|
口④④口 |③---|
口口口口 |④---|
16
口口口口 |①---|
①④④① |②---|
口口③口 |③---|
口口口② |④---|
17
①口口② |①---|
①口口② |②---|
口口口口 |③---|
口③③口 |----|
18
口口口② |①---|
①口③① |②---|
口④④口 |③---|
口口口口 |④---|
19
②口口口 |①---|
①③口① |②---|
口④④口 |③---|
口口口口 |④---|
20
口口口口 |①---|
①④④① |②---|
口③口口 |③---|
②口口口 |④---|
21
④④④④ |①---|
③口口① |②---|
③口口① |③---|
口②②口 |④---|
22
口⑤口口 |--①-|
⑤口口口 |②-③-|
口③④口 |④---|
口①②口 |⑤---|
23
口口⑤口 |--①-|
口口口⑤ |②-③-|
口④③口 |④---|
口②①口 |⑤---|
24
口⑤口口 |--①-|
⑤口口口 |②-③-|
口③④口 |④---|
口①②口 |⑤---|
25
③口口① |①-②-|
⑥④②⑤ |③-④-|
口口口口 |⑤--⑥|
口⑦⑦口 |--⑦-|
26
⑤口口口 |--①-|
口⑤口口 |②-③-|
③口口④ |④---|
①口口② |⑤---|
27
口口口⑤ |--①-|
口口⑤口 |②-③-|
④口口③ |④---|
②口口① |⑤---|
28
口口口口 |--①-|
⑤口口⑥ |②-③-|
口③④口 |④--⑤|
口①②口 |--⑥-|
29
口①①口 |①---|
口口口口 |----|
口口口口 |----|
口口口口 |----|
30
口口口口 |①-②-|
口①口口 |③-④-|
口②口口
口③④口

口⑥口口
口⑦口口
口口⑤口 |⑤---|
口口口口 |⑥-⑦-|
31
③口口口 |①---|
口口口② |②---|
口①口口 |③---|
口口口口 |----|
32
口口口口 |①-②-|
口口①口 |③-④-|
口口②口
口④③口

口口⑥口
口口⑦口
口⑤口口 |⑤---|
口口口口 |⑥-⑦-|
33
口口口口 |①---|
口口口口 |----|
口口①口 |----|
口口口口 |----|
34
口口口口 |①-②-|
口口①口 |③-④-|
口口②口
口④③口

口口⑥口
口口⑦口
口⑤口口 |⑤---|
口口口口 |⑥-⑦-|
35
口口口③ |①---|
②口口口 |②---|
口口①口 |③---|
口口口口 |----|
36
①①②② |①---|
口口口口 |----|
口口口口 |②---|
口③④口 |③-④-|
37
口口口口 |①---|
③口口② |----|
口①口④ |②--③|
口口口口 |--④-|
38
口①口口 |--①-|
⑤口②口 |②-③-|
⑤③口口 |④---|
口口④口 |⑤---|
39
口口①口 |--①-|
口②口⑤ |②-③-|
口口③⑤ |④---|
口④口口 |⑤---|
40
口口口口 |①--②|
①口口④ |--③-|
口②⑤口 |④--⑤|
口⑥③口 |--⑥-|
41
①口口① |①--②|
③④④③ |--③-|
口④④口 |④---|
②口口② |----|
42
①口①③ |----|
口口口③ |①---|
②口②口 |②---|
口口口口 |--③-|
43
口口口口 |--①-|
口口口口 |②-③-|
口①②口 |④---|
口③④口 |----|
44
口口口口 |①-②-|
①②③口 |③---|
口⑥⑤④ |④-⑤-|
口口口口 |⑥---|
45
口⑤⑤口 |①-②-|
⑦口口⑦ |③-④-|
④⑥⑥③ |⑤--⑥|
②口口① |--⑦-|
46
①③③② |----|
口口口口 |①---|
①口口② |②---|
口口口口 |--③-|
47
口口口口 |--①-|
口③④口 |②-③-|
口①②口 |④---|
口口口口 |----|
48
①口口④ |①-②-|
②口口⑤ |③---|
口③⑥口 |④-⑤-|
口口口口 |⑥---|
49
③口口③ |①-②-|
口①①口 |③-④-|
④口口④ |----|
口②②口 |----|
50
③①口① |----|
③口口口 |①---|
口②口② |②---|
口口口口 |--③-|
51
口口口口 |--①-|
口口口口 |②-③-|
口②①口 |④---|
口④③口 |----|
52
口口口口 |①-②-|
口③②① |③---|
④⑤⑥口 |④-⑤-|
口口口口 |⑥---|
53
口⑤⑤口 |①-②-|
⑦口口⑦ |③-④-|
③⑥⑥④ |⑤--⑥|
①口口② |--⑦-|
54
②③③① |----|
口口口口 |①---|
②口口① |②---|
口口口口 |--③-|
55
⑥口口⑤ |--①-|
口④③口 |②-③-|
口②①口 |④---|
口口口口 |⑤-⑥-|
56
口口口口 |--①-|
②口口口 |----|
②口口口 |----|
口①①口 |--②-|
57
④④④④ |①---|
口③③① |②---|
口③③① |③---|
口②②口 |④---|
58
口口口口 |①-②-|
口口③② |③-④-|
④口口①
口口口口

口口口口
⑤⑥口⑧
口口口⑦ |⑤-⑥-|
口口口口 |⑦-⑧-|
59
口口口口 |①-②-|
口口①口 |③-④-|
口④口口
口②③口

口⑧口口
口⑥⑦口
口口⑤口 |⑤-⑥-|
口口口口 |⑦-⑧-|
60
口口①口 |①---|
口③④口 |--②-|
口②⑤口 |③-④-|
口口⑥口 |⑤-⑥-|
61
⑦口⑧口 |①-②-|
⑤口⑥口 |③-④-|
口③口④ |⑤-⑥-|
口①口② |⑦-⑧-|
62
③①口口 |①---|
③①口口 |②---|
口口②④ |③---|
口口②④ |④---|
63
口口①③ |①---|
口口①③ |②---|
④②口口 |③---|
④②口口 |④---|
64
④③④③ |①---|
①②①② |②---|
口口口口 |③---|
口口口口 |④---|
65
口口⑦口 |①-②-|
口⑥⑤口 |③-④-|
口④③口 |⑤-⑥-|
口②①口 |⑦---|
66
②口口口 |①---|
①③口① |②---|
口④④口 |③---|
口口口口 |④---|
67
口口口② |①---|
①口③① |②---|
口④④口 |③---|
口口口口 |④---|
68
口口口口 |①---|
①④④① |②---|
口口③口 |③---|
口口口② |④---|
69
①口口② |①---|
①口口② |②---|
口口口口 |③---|
口③③口 |----|
70
③口口④ |①-②-|
①⑤⑥② |③-④-|
口⑦⑧口 |⑤-⑥-|
口口口口 |⑦-⑧-|
71
口⑦⑧口 |①-②-|
口⑤⑥口 |③-④-|
③口口④ |⑤-⑥-|
①口口② |⑦-⑧-|
72
口口口口 |①-②-|
①口口② |③-④-|
③⑦⑧④ |⑤-⑥-|
口⑤⑥口 |⑦-⑧-|
73
⑦⑦⑦⑦ |①-②-|
①口口⑥ |③-④-|
②口口⑤ |⑤-⑥-|
口③④口 |⑦---|

accuracy: 100%
最終更新:2022年04月24日 04:24