アットウィキロゴ
ミッドナイト☆WAR
いちか

EXTREME

Level: 10.0
BPM: 156
Notes: 832

1
口口口口 |----|
口口口口 |----|
口口口口 |----|
口口口口 |----|
2
口③④口 |①---|
①口②① |--②③|
①⑦⑥① |④-⑤⑥|
口⑤口⑧ |⑦-⑧-|
3
口⑤⑥口 |①---|
①③④① |--②③|
①口②① |④⑤⑥-|
口⑦口⑧ |⑦-⑧-|
4
②口口② |①---|
①口口① |②---|
①②②①
口口口口

口④④口
口③③口
④口口④ |③---|
口③③口 |④---|
5
口口口口 |①---|
①口口① |----|
②②②② |②---|
①口口① |----|
6
①②⑦⑥ |①②③④|
③④⑨⑧ |⑤-⑥⑦|
⑤⑬⑭⑩ |⑧⑨⑩-|
口⑪⑫口 |⑪⑫⑬⑭|
7
口口⑥② |①--②|
③①⑥口 |③④⑤-|
口口口④ |--⑥-|
⑤⑦口⑧ |⑦-⑧-|
8
①②⑦⑥ |①②③④|
③④⑨⑧ |⑤-⑥⑦|
⑤⑬⑭⑩ |⑧⑨⑩-|
口⑪⑫口 |⑪⑫⑬⑭|
9
口④③② |①-②③|
口①口⑤ |④-⑤-|
口⑦⑦⑤ |⑥-⑦-|
⑧⑥⑥⑧ |⑧---|
10
①②⑦⑥ |①②③④|
③④⑨⑧ |⑤-⑥⑦|
⑤⑬⑭⑩ |⑧⑨⑩-|
口⑪⑫口 |⑪⑫⑬⑭|
11
口口⑥② |①--②|
③①⑥口 |③④⑤-|
口口口④ |--⑥-|
⑤⑦口⑧ |⑦-⑧-|
12
①②⑦⑥ |①②③④|
③④⑨⑧ |⑤-⑥⑦|
⑤⑬⑭⑩ |⑧⑨⑩-|
口⑪⑫口 |⑪⑫⑬⑭|
13
③⑦口④ |①②③④|
⑩①⑨⑥ |⑤⑥⑦⑧|
⑩⑩口⑧ |⑨---|
⑤⑩⑩② |⑩---|
14
①⑤口口 |①-②③|
口③口口 |④-⑤-|
口口②④
口口口①

⑩口口口
口口口⑥
口口口口 |⑥-⑦⑧|
口⑦⑧⑨ |⑨-⑩-|
15
口口⑤① |①-②③|
口口③口 |④-⑤-|
④②口口
①口口口

口口口⑩
⑥口口口
口口口口 |⑥-⑦⑧|
⑨⑧⑦口 |⑨-⑩-|
16
①⑤口口 |①-②③|
口③口口 |④-⑤-|
口口②④
口口口①

⑩口口口
口口口⑥
口口口口 |⑥-⑦⑧|
口⑦⑧⑨ |⑨-⑩-|
17
口口口口 |①-②-|
②口①③ |③-④-|
④口③①
口口口口

口⑥⑦⑥
口口⑦口
口⑦口口 |⑤--⑥|
⑤⑦⑤口 |--⑦-|
18
①⑤口口 |①-②③|
口③口口 |④-⑤-|
口口②④
口口口①

⑨口口口
口口口⑥
口口口口 |⑥-⑦-|
口⑦口⑧ |⑧-⑨-|
19
口口⑤① |①-②③|
口口③口 |④-⑤-|
④②口口
①口口口

口口口⑩
⑥口口口
口口口口 |⑥-⑦⑧|
⑨⑧⑦口 |⑨-⑩-|
20
①⑤口口 |①-②③|
口③口口 |④-⑤-|
口口②④
口口口①

⑨口口口
口口口⑥
口口口口 |⑥-⑦-|
口⑦口⑧ |⑧-⑨-|
21
口口口口 |①---|
口①①口 |----|
口①①口
口口口口

③口③口
口③口②
③口③口 |②---|
口②口② |③---|
22
口口口① |①-②③|
口口口④ |④-⑤-|
口口口②
①⑤③口

⑥口⑥⑩
口口⑨口
⑦⑧⑦口 |⑥-⑦-|
口口口口 |⑧⑨⑩-|
23
②①⑧⑦ |--①②|
③口口⑥ |③-④-|
口口口口 |⑤-⑥⑦|
④⑨⑨⑤ |⑧-⑨-|
24
口⑥⑥口 |--①-|
①③②④ |②-③-|
③①④② |④-⑤-|
⑦⑤⑤⑦ |⑥-⑦-|
25
①口口② |①-②-|
口③④口 |③-④-|
②④③①
口口口口

口⑤⑥口
口口口口
⑦口口⑦ |⑤--⑥|
口⑥⑤口 |--⑦-|
26
口口口口 |--①②|
口③口① |③-④-|
口口②口
口口口④

⑤⑦口口
口口口⑧
⑦⑤口⑥ |⑤-⑥-|
口口⑧口 |⑦-⑧-|
27
口口口口 |--①②|
①口③口 |③-④-|
口②口口
④口口口

口口⑦⑤
⑧口口口
⑥口⑤⑦ |⑤-⑥-|
口⑧口口 |⑦-⑧-|
28
⑤⑥⑥④ |--①-|
口③③口 |②-③-|
④口口⑤ |④--⑤|
②口口① |--⑥-|
29
口口口口 |①---|
①口口① |----|
口①①口
①口口①

口口口口
口口口口
口口口口 |----|
②口口② |②---|
30
口口口口 |①-②-|
口①口口 |③-④-|
口②③④
口口口口

口口口口
口⑥口⑤
口⑦口口 |⑤---|
口口口口 |⑥-⑦-|
31
口③口口 |①---|
②口③口 |②---|
①口口③ |③---|
口①②口 |----|
32
口口口口 |①-②-|
口②③④ |③-④-|
口①口⑤ |⑤---|
口⑥⑦口 |⑥-⑦-|
33
①口口口 |①-②-|
①③口⑤ |③-④-|
②口④⑥ |⑤-⑥-|
口⑦⑦口 |⑦---|
34
口口口口 |①-②-|
口口①口 |③-④-|
④③②口
口口口口

口口口口
⑤口⑥口
口口⑦口 |⑤---|
口口口口 |⑥-⑦-|
35
口口③口 |①---|
口③口② |②---|
③口口① |③---|
口②①口 |----|
36
口口口口 |①---|
口口口口 |----|
口口口①
口①口口

口口②口
②口口④
③口④口 |②---|
口③口口 |③-④-|
37
①口口口 |①-②-|
口①③口 |③-④-|
口④口②
口口口口

口⑤⑥口
⑤口口⑥
口口口⑦ |⑤--⑥|
口口⑦口 |--⑦-|
38
③口口⑤ |--①②|
⑨①口口 |③-④-|
⑥口②口 |⑤-⑥⑦|
口⑦⑧④ |⑧-⑨-|
39
⑤口口③ |--①②|
口口①口 |③-④-|
口②口⑥ |⑤-⑥⑦|
④⑧⑦⑨ |⑧-⑨-|
40
②⑤④① |①--②|
⑤②①④ |--③-|
④①②⑤ |④--⑤|
③⑥③⑥ |--⑥-|
41
①③口② |①--②|
③①②③ |--③-|
④①②④ |④---|
⑤口④⑤ |⑤---|
42
①②口① |①---|
口②口口 |②---|
口口②口
口口②口

⑤口③口
④口③④
口③口口 |③---|
口③口⑤ |④-⑤-|
43
④②口① |--①-|
③口口口 |②---|
③③口② |③---|
①③③④ |④---|
44
口②口口 |①②③④|
口④①口 |⑤⑥-⑦|
口⑥③口
⑦口⑤口

口⑪口口
⑨口⑩⑩
⑨口⑫⑧ |⑧-⑨-|
口口口⑧ |⑩⑪-⑫|
45
口口②④ |①-②-|
口口口口 |③-④-|
口口口口
口口①③

口⑤口口
⑤口⑥口
口⑥口⑦ |⑤--⑥|
口口⑦口 |--⑦-|
46
②口口口 |①---|
口②口② |②---|
口口②口
①口口①

口口口③
③口③口
④③口④ |③---|
⑤口⑤口 |④-⑤-|
47
①③①③ |--①-|
口②③② |②---|
口③口口 |③---|
④口口④ |④---|
48
①口③口 |①②③④|
口②口④ |⑤-⑥⑦|
⑥口⑤口
口⑦口口

口口口口
⑧口⑩⑬
口⑨⑭⑪ |⑧⑨⑩⑪|
口口⑫口 |⑫-⑬⑭|
49
③①口口 |①-②-|
⑧①⑥口 |③-④-|
④⑦口⑤ |⑤-⑥-|
④②口口 |⑦-⑧-|
50
①②口口 |①---|
口②口口 |②---|
口口②口
口口②①

⑤口③口
④口③④
口③口口 |③---|
口③口⑤ |④-⑤-|
51
④②口① |--①-|
③口口口 |②---|
③③口② |③---|
①③③④ |④---|
52
⑩⑦①④ |①②③-|
⑥②⑧⑫ |④-⑤⑥|
⑤⑨③⑪ |⑦⑧⑨-|
口口口口 |⑩-⑪⑫|
53
口口②④ |①-②-|
口口口口 |③-④-|
口口口口
口口①③

口⑤口口
⑤口⑥口
口⑥口⑦ |⑤--⑥|
口口⑦口 |--⑦-|
54
②口口口 |①---|
口②口口 |②---|
口口②口
①口口①

口⑤口③
口口③口
⑤③口口 |③---|
④口口④ |④-⑤-|
55
口口口口 |--①-|
口②③① |②-③-|
口③②口
口口①口

⑤口⑥④
口口口⑥
⑥口口口 |④---|
④⑥口⑤ |⑤-⑥-|
56
口①口口 |--①-|
①口口口 |----|
口口口①
口口①口

口口口口
口口口口
②口口② |----|
口口口口 |--②-|
57
口口口口 |①---|
口①①② |②---|
口①①口
口②口②

④⑤④⑤
③口⑤口
④⑤口⑤ |③-④-|
③口③口 |⑤---|
58
口⑦④口 |①-②-|
⑦⑤口③ |③-④⑤|
口⑥③口 |⑥-⑦-|
⑧①⑨② |⑧-⑨-|
59
口口⑤口 |①-②③|
口④①⑦ |④⑤⑥⑦|
⑥口③①
口②口口

⑧口口⑨
⑩口⑫口
口口口口 |⑧⑨⑩-|
口口⑪口 |⑪-⑫-|
60
口⑥口⑤ |①---|
口④⑧⑦ |--②③|
口②③口 |④-⑤-|
口口口① |⑥-⑦⑧|
61
⑪口口⑫ |①②③④|
⑨口口⑩ |⑤⑥⑦⑧|
⑤⑥④③ |⑨-⑩-|
①②⑧⑦ |⑪-⑫-|
62
口①③口 |①②-③|
口②④口 |④-⑤⑥|
口⑤口口
口⑥口口

⑨⑨口口
口口口口
口口⑦口 |-⑦⑧-|
口口⑧口 |⑨---|
63
口口口① |①②-③|
③口②口 |④-⑤⑥|
口④口⑤
口口⑥口

口⑩⑨口
口⑫⑪口
⑦口口口 |-⑦⑧-|
口⑧口口 |⑨⑩⑪⑫|
64
口⑧⑦⑨ |①②③-|
口⑪⑩⑫ |④⑤⑥-|
口②①③ |⑦⑧⑨-|
口⑤④⑥ |⑩⑪⑫-|
65
⑪⑨⑩口 |①②③④|
⑨⑪口⑩ |⑤⑥⑦⑧|
①②③④ |⑨-⑩-|
⑤⑥⑦⑧ |⑪---|
66
口口⑤① |①-②③|
口口③口 |④-⑤-|
④②口口
①口口口

口口口⑩
⑥口口口
口口口口 |⑥-⑦⑧|
⑨⑧⑦口 |⑨-⑩-|
67
①⑤口口 |①-②③|
口③口口 |④-⑤-|
口口②④
口口口①

⑩口口口
口口口⑥
口口口口 |⑥-⑦⑧|
口⑦⑧⑨ |⑨-⑩-|
68
口口⑥① |①-②③|
口⑤③口 |④⑤⑥-|
④②口口
①口口口

口口口⑪
口口口口
口口口⑦ |⑦-⑧⑨|
⑩⑨⑧口 |⑩-⑪-|
69
口口口口 |①-②-|
③①口② |③-④-|
①③口④
口口口口

⑥⑦⑥口
口⑦口口
口口⑦口 |⑤--⑥|
口⑤⑦⑤ |--⑦-|
70
口口口口 |①-②③|
①口口② |④-⑤-|
口口口③
①⑤口④

口口口⑥
⑨⑨⑦口
口⑧口⑩ |⑥⑦⑧⑨|
⑩口⑩口 |--⑩-|
71
②③口口 |①-②③|
口口⑤④ |④⑤⑥⑦|
⑥⑦口口
口口口①

⑬⑬⑨⑧
⑩⑪口口
口口⑬⑫ |⑧⑨⑩⑪|
口口⑫口 |⑫-⑬-|
72
⑧⑪⑦⑤ |①-②③|
口⑨④⑥ |④⑤⑥-|
口③⑩口 |⑦-⑧⑨|
②⑦⑪① |⑩-⑪-|
73
⑪⑪⑪① |①-②③|
②⑧④⑥ |④⑤⑥⑦|
⑨③⑦⑤ |⑧⑨⑩-|
①⑩⑩⑩ |⑪---|

accuracy: 100%
最終更新:2022年04月24日 04:50