アットウィキロゴ
Our Faith [ 2 ]
kors k

ADVANCED

Level: 9.2
BPM : 175
Notes(hold): 540(61)

1
口口口口 |----|
口口口口 |----|
口口口口 |----|
口口口口 |----|
2
①口①口 |①---|
口②口② |②---|
③口③口 |③---|
口④口④ |④---|
3
口①口① |①---|
②口②口 |②---|
口③口③ |③---|
④口④口 |④---|
4
①口①口 |①---|
口②口② |②---|
③口③口 |③---|
口④口④ |④---|
5
口①口① |①---|
②口②口 |②---|
口③口③ |③---|
④口④口 |④---|
6
②口口① |①---|
②口口① |②---|
④口口③ |③---|
④口口③ |④---|
7
②口口① |①---|
口②①口 |②---|
口④③口 |③---|
④口口③ |④---|
8
②口口① |①-②-|
⑥口口⑤ |③-④-|
④口口③ |⑤-⑥-|
⑧口口⑦ |⑦-⑧-|
9
口口>① |①---|
口口口口 |②③④-|
口口口口 |⑤⑥⑦⑧|
口口口口 |⑨---|

口口口②
⑨⑤⑥口
④③②口
口⑦⑧口
10
口口①口 |①---|
⑤口口① |--②③|
⑥口口口 |④---|
②③④口 |⑤-⑥-|
11
③口口① |①---|
口口②口|②---|
口③①口 |③---|
口口口② |④-⑤-|

口口口口
口④口口
口口⑤口
④口口口
12
⑤①口口 |①---|
①⑤口口 |--②③|
口口口口 |④---|
口④③② |⑤---|
13
口口口① |①---|
⑥⑤口① |②---|
②口④③ |③-④-|
②口口口 |⑤-⑥-|
14
口口①口 |①---|
⑤口口① |--②③|
⑥口口口 |④---|
②③④口 |⑤-⑥-|
15
口口口① |①---|
口口②口 |②---|
口口①口 |③-④-|
口口口② |⑤-⑥-|

③口口⑥
口口口口
口口口口
⑤口④口
16
⑤①口口 |①---|
①⑤口口 |--②③|
口口口口 |④---|
口④③② |⑤---|
17
口口①① |①---|
⑥⑤口① |②---|
②②④③ |③-④-|
②口口口 |⑤-⑥-|
18
①―<口 |①---|
口口口口 |----|
口口口口 |②---|
口口口口 |----|

②口口口
口>―②
口口口口
口口口口
19
口口口口 |①---|
口口口① |----|
①―<口 |②---|
口口口口 |----|

口口口口
口口口口
②口口口
口>―②
20
口①―< |①---|
①―<口 |----|
口口口口 |----|
口口口① |②---|

口②口口
②口口口
口口口②
口口口口
21
口口口口 |①---|
口口口口 |----|
①―<口 |----|
口①―< |----|
22
口>―① |①---|
口口口口 |----|
①口口口 |②---|
口①口口 |----|

口口口②
②―<口
口口口口
口口口口
23
口口口口 |①---|
①口口口 |----|
口>―① |②---|
口口口口 |----|

口口口口
口口口口
口口口②
②―<口
24
口口①口 |①---|
口口∧口 |②---|
口口口口 |③---|
①口口口 |④-⑤-|

口口②口
口②口口
口∧口口
口口口口

口口口口
口③口口
口口③口
口口∧口

口口口口
口口口口
口口④口
⑤<口口
25
口>―② |--①-|
口口口① |②---|
口口口口 |----|
①口口口 |----|
26
①口口① |①---|
|口口口 |----|
∧口口口 |②---|
口口口口 |----|

②口口口
口∨口口
口|口口
口②口口
27
口口①口 |①---|
口口|口 |----|
口口∧口 |②---|
口①口口 |----|

口口②口
口口口∨
口口口|
口口口②
28
口①口口 |①---|
①|口口 |----|
|∧口口 |----|
∧口口① |②---|

口②口口
②口口口
口口口口
口②口口
29
口口①口 |①---|
口口|① |----|
口口∧| |②---|
口口口∧ |----|

口口②口
口口口②
口口口口
口口②口
30
口口口口 |①---|
口口口口 |②---|
①―<口 |----|
口口口② |③---|

口口口③
口口口口
③口口口
口口口口
31
口口口口 |①-②-|
口②>④ |③-④-|
口口口① |----|
③口口口 |⑤---|

⑤口口口
口口口⑤
口口口口
口口口口
32
口口口口 |①---|
口口口口 |②---|
口①口口 |③---|
口口>① |④---|

口口口口
口口口口
②口口口
③④口③
33
①②③④ |①②③④|
⑤⑥⑦⑧ |⑤⑥⑦⑧|
⑨⑩⑪⑫ |⑨⑩⑪⑫|
⑬⑭⑮⑯ |⑬⑭⑮⑯|
34
①――< |①---|
口口②口 |----|
口口口口 |②---|
口口口口 |----|
35
口口口口 |①---|
口①口口 |----|
口口②口 |②---|
口口口口 |----|
36
口口口口 |①---|
口口口口 |----|
口①口口 |②---|
口口②口 |----|
37
口口口口 |①---|
口口口口 |----|
②口口② |②---|
口①口口 |----|
38
口口口③ |①---|
口口口③ |②---|
口②①口 |③---|
口②①口 |----|
39
口口③③ |①---|
口口口口 |②---|
②口口① |③---|
口②①口 |----|
40
口口口口 |①---|
④②③① |②---|
口口口口 |③---|
④②③① |④---|
41
①口>① |①---|
口口口口 |②③④-|
口口口口 |⑤⑥⑦⑧|
口口口口 |⑨---|

口口口②
⑨⑤⑥口
④③②口
口⑦⑧口
42
⑥②⑥② |①--②|
⑦⑧口口 |-③④-|
口口④③ |⑤--⑥|
⑤口口① |-⑦⑧-|
43
⑥②⑥② |①--②|
口口④③ |-③④-|
⑦⑧口口 |⑤--⑥|
⑤口口① |-⑦⑧-|
44
⑤⑦⑧② |①--②|
⑤口口口 |-③④-|
口口口① |⑤--⑥|
⑥④③① |-⑦⑧-|
45
口⑧口② |①--②|
⑤口口⑨ |-③④-|
口④③① |⑤-⑥⑦|
口⑥⑦① |⑧-⑨-|
46
②⑥②⑥ |①--②|
口口⑧⑦ |-③④-|
③④口口 |⑤--⑥|
①口口⑤ |-⑦⑧-|
47
②⑥②⑥ |①--②|
③④口口 |-③④-|
口口⑧⑦ |⑤--⑥|
①口口⑤ |-⑦⑧-|
48
①口②⑤ |①---|
③口①口 |②---|
口④口⑤ |③--④|
口②口③ |--⑤-|
49
④口⑥口 |--①-|
④⑦①⑥ |②-③-|
口口②口 |④-⑤-|
口③⑤口 |⑥-⑦-|
50
⑥②⑥② |①--②|
⑦⑧口口 |-③④-|
口口④③ |⑤--⑥|
①⑤⑤① |-⑦⑧-|
51
⑥②⑥② |①--②|
口口④③ |-③④-|
⑦⑧口口 |⑤--⑥|
①⑤⑤① |-⑦⑧-|
52
⑤⑦⑧② |①--②|
⑤口口口 |-③④-|
口口口① |⑤--⑥|
⑥④③① |-⑦⑧-|
53
⑥口口⑤ |①--②|
口口口① |-③④-|
②④③① |⑤-⑥-|
⑧口口⑦ |⑦-⑧-|
54
口①①口 |①---|
②③③② |②---|
②口口② |③---|
④①①④ |④---|
55
②③③① |①-②-|
口口口口 |--③-|
口②①口 |----|
④③③④ |④---|
56
②⑤⑤① |①---|
②③③① |②---|
②口口① |③--④|
④⑤⑤④ |--⑤-|
57
口口口口 |①---|
口口口口 |--②-|
>①①< |③④⑤⑥|
口口口口 |⑦⑧⑨⑩|

口⑧⑦口
口④③口
⑩②②⑨
⑥口口⑤
58
口口口① |①--②|
口③口∧ |--③-|
口口口口 |④---|
口口②口 |⑤-⑥-|

④口口④
∧口口口
口口口口
⑤⑥口口
59
①口①口 |①--②|
口口∧口 |--③-|
口③口口 |④---|
口口口② |⑤-⑥-|

口④④口
口∧口口
口口口口
口⑥⑤口
60
口①口① |①--②|
口口④| |--③-|
口②口∧ |-④--|
口口口③ |⑤---|

口口口⑤
口口口口
口口口口
口⑤口口
61
①口口口 |①--②|
|③口口 |--③-|
|口口④ |-④--|
∧口②口 |⑤-⑥-|

口口口口
口口口口
口口口口
⑥⑤口口
62
①口①口 |①--②|
口口∧口 |--③-|
口②口口 |④---|
口口口③ |⑤-⑥-|

口④④口
口∧口口
口口口口
口⑥⑤口
63
口①口① |①--②|
口口②∧ |--③-|
口口口口 |④---|
口口口③ |⑤-⑥-|

④口口④
∧口口口
口口口口
⑥⑤口口
64
①口口口 |①---|
口口>① |②---|
口口∨口 |③---|
口口①口 |--④-|

口②口口
口∧口②
②<口口
口口②口

口③③<
口口口口
③口口③
口口口∧

口口④口
④<口口
口口口④
④<口口
65
口口口口 |--①-|
①口②< |②---|
口>②口 |----|
①口口① |----|
66
②①口② |①---|
口①①口 |----|
口口①口 |----|
③口口③ |②-③-|
67
口口②口 |----|
①口∧① |①---|
口①①口 |②---|
口③④口 |③-④-|
68
①口①口 |①--②|
|④口口 |--③-|
∧口②口 |-④--|
③口口口 |⑤---|

⑤口口口
口口口口
口口口口
口口⑤口
69
口口口① |①--②|
口口③∧ |--③-|
口口口口 |④-⑤-|
口②口口 |⑥-⑦-|

口④口④
口⑤口口
口口⑥口
口口⑦口
70
∨口口口 |①---|
|口口① |----|
①口口| |----|
口口口∧ |②-③-|

口口口口
口口口②
②口③口
口口口口
71
口口>② |①-②-|
口①口口 |--③-|
口口口口 |----|
口口口口 |④---|

口口口③
口口口口
口∨口口
口③口口

口口口口
口口口口
口口口口
口④④口
72
口口口口 |①---|
①――< |----|
口口口口 |----|
口口口口 |----|
73
口①①③ |①--②|
口口口口 |--③-|
口口口④ |----|
口②②口 |④---|
74
口口口口 |①---|
①口口① |----|
口①①口 |----|
口口口口 |----|
最終更新:2021年04月19日 17:38