アットウィキロゴ
Our Faith [ 2 ]
kors k

EXTREME

Level: 10.6
BPM:175
Notes(hold): 739(59)

1
口口口口 |----|
口口口口 |----|
口口口口 |----|
口口口口 |----|
2
口④口④ |①---|
③口口③ |②---|
口②口② |③---|
①口口① |④---|
3
口④口④ |①---|
口口③③ |②---|
口②口② |③---|
口口①① |④---|
4
④口口④ |①---|
口③口③ |②---|
②口口② |③---|
口①口① |④---|
5
口口④④ |①---|
口③口③ |②---|
口口②② |③---|
口①口① |④---|
6
③口④④ |①---|
③口④③ |②---|
①口②② |③---|
①口②① |④---|
7
⑦⑤⑧⑦ |①-②-|
⑦⑤⑥⑤ |③-④-|
③①④③ |⑤-⑥-|
③①②① |⑦-⑧-|
8
⑭⑯⑮⑬ |①②③④|
⑫⑩⑨⑪ |⑤⑥⑦⑧|
⑥⑧⑦⑤ |⑨⑩⑪⑫|
④②①③ |⑬⑭⑮⑯|
9
口口口口 |①---|
口口口口 |②③④-|
口口口口 |⑤⑥⑦⑧|
口口①< |⑨⑩--|

>――⑨
⑧⑦⑥⑤
②口口口
③④②口

口口口⑩
口口口口
口口口口
口口口口
10
⑤④③⑥ |①---|
口口⑥⑤ |②-③④|
口①①② |⑤---|
口⑦口① |⑥-⑦-|
11
④口②④ |①---|
①⑤口③ |②---|
①口②② |③---|
③口③① |④-⑤-|
12
口①⑥⑥ |①---|
口口口⑤ |②-③④|
口①口② |⑤---|
③④⑤① |⑥---|
13
口口口口 |①---|
①②①口 |②---|
口口口② |③-④-|
②口口① |⑤-⑥-|

③④⑤⑤
口口⑥③
口口口口
口口口口
14
③口口⑥ |①---|
④口口⑤ |②-③④|
⑤①⑦② |⑤---|
口⑥①① |⑥-⑦-|
15
⑥①①⑤ |①---|
⑤④③③ |②---|
口口口② |③-④-|
②口②① |⑤-⑥-|
16
口⑥③⑥ |①---|
口口④⑤ |②-③④|
口①⑤② |⑤---|
口①口① |⑥---|
17
口口口口 |①---|
口②②口 |②---|
口口口② |③-④-|
①①口① |⑤-⑥-|

③口口⑤
④口口③
口⑤口口
口⑥口口
18
口口①口 |①---|
口口∧口 |----|
口口口口 |②---|
口口口口 |----|

②口②口
∧口口口
口口口口
口口口口
19
①∨口口 |①---|
口①口口 |----|
口口口口 |②---|
口口口口 |----|

口口口口
口②口口
口口口口
②<口口
20
口口口口 |①---|
口口口口 |----|
①―<口 |----|
①口口口 |②---|

口口口口
口口口口
②口口口
口>②口
21
口口口口 |①---|
口①口口 |----|
口|口口 |----|
口∧①口 |----|
22
口口口口 |①---|
口①口口 |----|
∨口口口 |②---|
①口口口 |----|

口口口口
口口口口
口口②口
②口∧口
23
口口口口 |①---|
口口口口 |----|
口①①口 |②---|
口∧口口 |----|

口>②口
口口口口
口②口口
口口口口
24
②∨①口 |①---|
∧⑤①口 |②---|
③口∧口 |③---|
∧口口口 |④-⑤-|

③口口口
口口②口
④口口口
口口口口
25
口口口口 |--①-|
口①口口 |②---|
>―②口 |----|
口①口口 |----|
26
口口①口 |①---|
口口∧口 |----|
口口①口 |②---|
口口口① |----|

∨口②口
②口口口
口口口口
口②口口
27
口∨口口 |①---|
①①口口 |----|
口①口口 |②---|
口口口口 |----|

口口口口
口②口②
口口口口
②<口口
28
口口口口 |①---|
口口口口 |----|
①―<口 |②---|
①口口① |③---|

口口口口
口口②口
③口口口
口>③口
29
口口口口 |①---|
口①口① |----|
口∧口口 |②-③-|
口口①口 |④-⑤-|

口口⑤口
口②④口
口口口口
②③口口
30
①口口① |①---|
|口口口 |②---|
∧①口口 |③---|
口口口② |④-⑤-|

④④口口
口口口③
口口③口
口⑤口口
31
口口②口 |①-②-|
口口∧口 |③-④-|
③口口① |⑤---|
口口①口 |⑥---|

口口口⑤
⑥⑥∨口
|⑤④口
∧口口口

口口④口
口口口口
口口⑥口
口口口口
32
口口口口 |①---|
①口口口 |②---|
口④口② |③---|
①<③口 |④---|

口口口口
口口口口
口口口口
④口口口
33
⑬⑨⑤① |①②③④|
⑭⑩⑥② |⑤⑥⑦⑧|
⑮⑪⑦③ |⑨⑩⑪⑫|
⑯⑫⑧④ |⑬⑭⑮⑯|
34
⑦③④∨ |①--②|
⑧口⑥| |-③④-|
口口②| |⑤--⑥|
口口⑤① |-⑦⑧-|
35
口口⑦口 |①--②|
⑥①⑧口 |-③④-|
口⑤②口 |⑤--⑥|
③④口口 |-⑦⑧-|
36
③④口口 |①--②|
口口口口 |-③④-|
②口口口 |⑤--⑥|
口口①口 |-⑦⑧-|

口口口口
口口口口
口⑤⑦口
⑥口⑧口
37
②⑧③④ |①--②|
口①⑦口 |-③④-|
口口⑥口 |⑤-⑥-|
口⑤口口 |⑦-⑧-|
38
②口口③ |①---|
口②口口 |②---|
口④③口 |③---|
①⑤①口 |④-⑤-|
39
口②①口 |①---|
①口口② |②---|
口口口口 |③---|
口口口口 |④-⑤-|

④口口口
⑤口③口
口口口口
口口③口
40
④②②口 |①---|
④①③② |②---|
①③①口 |③---|
口③④口 |④---|
41
口口口口 |①---|
口口口口 |②③④-|
口口①< |⑤⑥⑦⑧|
口口口① |⑨⑩--|

>――⑨ |①---|
⑧⑦⑥⑤ |②③④-|
②口②口 |⑤⑥⑦⑧|
③④口口 |⑨⑩--|

口口口⑩
口口口口
口口口口
口口口口
42
口口口口 |①--②|
口口口口 |③④⑤-|
口①②③ |⑥⑦-⑧|
⑤④口① |⑨⑩⑪-|

口口口⑨
⑦⑥口⑥
⑪⑩口口
口口⑧口
43
②口①⑧ |①--②|
⑥⑪⑤⑥ |③④⑤-|
⑩⑨④③ |⑥--⑦|
口口⑦① |⑧⑨⑩⑪|
44
口⑥⑤口 |①②-③|
口口③口 |④⑤⑥-|
口口口④ |⑦--⑧|
②①口① |⑨⑩⑪⑫|

口口口⑨
⑦口口⑦
⑪⑩口口
口⑫⑧口
45
⑨⑧⑦⑨ |①--②|
⑥⑤②⑥ |③④-⑤|
⑩口①③ |⑥-⑦⑧|
④口口① |⑨-⑩-|
46
口口口口 |①--②|
口口口口 |③④⑤-|
口①②③ |⑥⑦-⑧|
⑤④口① |⑨⑩⑪-|

口口口⑨
⑦⑥口⑥
⑪⑩口口
口口⑧口
47
②口①⑧ |①--②|
⑥⑪⑤⑥ |③④⑤-|
⑩⑨④③ |⑥--⑦|
口口⑦① |⑧⑨⑩⑪|
48
口④①⑤ |①---|
③口③③ |②---|
口⑥⑥② |③--④|
②②口① |⑤-⑥-|
49
③口口口 |①-②-|
口⑤④口 |③-④⑤|
口口口③ |⑥-⑦-|
②②口① |⑧-⑨-|

口口⑦⑧
⑥口口⑥
⑧口口口
口口⑨口
50
口口口口 |①--②|
口口口口 |③④⑤-|
口①②③ |⑥⑦-⑧|
⑤④口① |⑨⑩⑪-|

口口口⑨
⑦⑥口⑥
⑪⑩口口
口口⑧口
51
②口①口 |①--②|
口口⑤口 |③④⑤-|
口口④③ |⑥--⑦|
口口口① |⑧⑨⑩-|

口⑩⑨⑧
⑥口口⑥
口口口口
口口⑦口
52
③口口口 |①②-③|
口①⑦口 |④⑤⑥⑦|
②⑥⑤④ |⑧⑨-⑩|
口口口① |⑪⑫⑬⑭|

口⑭口⑪
⑬⑫口⑧
口口口口
⑩⑨⑧口
53
①口②口 |①--②|
口口口口 |③④⑤⑥|
⑥⑤④③ |⑦-⑧-|
口口口① |⑨-⑩-|

⑩口口⑨
口口⑨⑦
口口口口
⑧口⑦口
54
口①①④ |①---|
③③④③ |②---|
②口②② |③---|
⑤口⑤① |④-⑤-|
55
⑧⑦⑥⑧ |①-②-|
⑤口口⑤ |③-④-|
②②④③ |⑤-⑥⑦|
⑨口⑨① |⑧-⑨-|
56
口口口口 |①---|
口①口口 |②---|
②口②② |③--④|
口口口① |--⑤-|

口⑤④口
③⑤④③
口③口口
口口口口
57
口口口口 |①---|
口口口口 |--②-|
口口口口 |③④⑤⑥|
口①―< |⑦⑧⑨⑩|

⑧⑩口⑦
⑥口口⑤
②④③②
口②⑨口
58
口口①口 |①--②|
口口∧口 |③-④-|
口口④③ |⑤⑥--|
口②口① |⑦-⑧-|

∨口⑤⑦
⑤口⑦⑤
口⑥口口
口口⑧口
59
口∨④口 |①--②|
①①口口 |③-④-|
口口②③ |⑤⑥--|
口口口① |⑦-⑧-|

口口口⑦
⑧⑤口⑤
口⑥口口
⑤<口口
60
口④口口 |①--②|
口口②口 |③-④-|
①―<③ |⑤⑥--|
①口口① |⑦-⑧-|

口口⑧⑦
口口口⑤
⑦口⑥口
口>⑦口
61
⑥口⑧⑦ |①--②|
②①④⑤ |③-④-|
口|口③ |⑤⑥--|
口∧①① |⑦-⑧-|
62
口口口口 |①--②|
④①口口 |③-④-|
∨口口③ |⑤⑥--|
①②口① |⑦-⑧-|

口⑧口⑦
口口⑥⑤
口口⑤口
⑤口∧口
63
口口口口 |①--②|
④口口口 |③-④-|
口①①③ |⑤⑥--|
口∧②① |⑦-⑧-|

口>⑤⑦
口⑥口⑤
口⑤口口
口⑧口口
64
③④①口 |①--②|
∧口①口 |③-④-|
口口∧③ |⑤⑥--|
口口②① |⑦-⑧-|

口∨⑧⑦
口⑧口⑤
⑤⑥口口
∧口口口

⑤口口口
口口③口
⑦口口口
口口口口
65
⑤⑦⑦⑥ |①-②③|
⑤②③⑥ |④-⑤-|
>―④④ |--⑥-|
口②口① |--⑦-|
66
③口口② |①---|
口口口口 |----|
②口①口 |----|
口③口口 |②-③-|
67
口口①④ |----|
⑤口口② |①---|
口③口口 |②③--|
②<①口 |④-⑤-|
68
口④口口 |①--②|
口口②口 |③-④-|
①―<③ |⑤⑥--|
①口口① |⑦-⑧-|

口口⑧⑦
口口口⑤
⑦口⑥口
口>⑦口
69
口口口口 |①--②|
②①④口 |③-④-|
口∧口③ |⑤-⑥-|
口口①① |⑦-⑧-|

口口⑧⑦
口⑤口⑤
口⑦⑥口
⑤⑥口口
70
①②口⑦ |①-②-|
|④口⑤ |③-④-|
∧⑥口③ |⑤-⑥-|
⑧⑧口① |⑦-⑧-|

⑦口口口
口口口口
口口口口
口口口口
71
口②②口 |①-②-|
口口∧口 |③-④-|
口口口③ |⑤-⑥-|
口口①① |⑦-⑧-|

口口口⑦
⑦④∨⑤
∧⑥④口
口⑧口口

口口④口
口口口口
口口⑦口
口口口口
72
②口口口 |①--②|
①⑤口③ |--③④|
口⑥口④ |-⑤⑥-|
⑦口①< |⑦---|
73
①②①② |①--②|
口口④口 |--③④|
口口③口 |-⑤-⑥|
口口口口 |⑦-⑧-|

⑧口口口
口口口⑦
口口口⑥
口⑤口口
74
口口口① |①---|
口①口口 |----|
口口口口 |----|
口口①口 |----|
最終更新:2021年04月20日 10:20