アットウィキロゴ
たたえよ!絶対覇権アリーシャ帝国
Blanc Bunny Bandit

EXTREME

Level: 9.4
BPM: 100-145
Notes(hold): 651(54)

BPM: 100
1
口口口口|①---|
口口口①|----|
口口口口|----|
口口口口|----|
2
口口口口|①---|
①口口口|----|
口口口口|----|
口口口口|----|
3
①口口④|①-②-|
口⑧⑤口|③-④-|
口⑦⑥口|⑤-⑥-|
②口口③|⑦-⑧-|

BPM: 145
4
口①∨|①---|
①口口口|----|
口口口①|----|
∧①口<|----|
5
口口口口|①---|
口口①口|----|
口①口口|----|
口口口口|----|

口口①口
①口口口
口口口①
口①口口
6
①①<|①---|
∨口口口|----|
①①<口|----|
口口口口|----|
7
口口口口|①---|
口①口①|----|
口口口口|----|
①①口口|----|

口①①口
口口口口
①①口口
口口口口
8
③④⑧⑦|①②-③|
口口⑪口|④-⑤⑥|
口⑩⑨口|-⑦⑧-|
⑤⑥②①|⑨⑩⑪-|
9
②口②口|①---|
口②口口|②---|
口口口口|③④⑤⑥|
口口①口|-⑦⑧⑨|

口⑦⑧⑨
口口口口
⑥⑤④③
口口口口
10
③口口口|①-②-|
口①④②|③-④-|
口③口口|⑤---|
①口②④|⑥-⑦⑧|

口口⑤⑥
⑦⑧口口
口口⑤⑥
口⑤⑥口
11
②口<口|①---|
口口①<|----|
②口<口|----|
口口口口|---②|

口口口口
口口②口
口口口口
口口口口
12
口口口③|--①②|
口②口口|③-④-|
口口口口|⑤⑥⑦⑧|
④④①口|-⑨⑩⑪|

口⑧⑪口
⑧⑩口⑦
口⑥⑨口
口口口⑤

①口口口
口口口口
①口口口
口口口口
13
⑤⑦⑦⑥|①-②-|
口⑤②口|③-④-|
口口⑥口|⑤--⑥|
④①①③|--⑦-|
14
口口口口|①-②-|
③②②③|③-④⑤|
口⑤口口|----|
①口④①|⑥-⑦-|

口口口口
口口口⑦
口口口⑥
口口口口
15
①③①③|①---|
④口④口|②---|
③④③④|③---|
②②②②|④---
16
①④④③|①-②-|
口∧∧③|③-④-|
口⑥②⑤|--⑤-|
口口②口|-⑥-⑦|

口⑦⑦口
口口口口
口口口口
口口口口
17
①口口①|①-②-|
口口口口|③-④-|
⑥⑤④口|⑤-⑥-|
⑦口③②|⑦---|
18
⑥口②⑥|①-②-|
③④⑤②|③-④-|
⑥③⑤①|⑤---|
④⑤①⑤|⑥---|
19
④④口口|①---|
④口③口|②---|
口①口②|③---|
口口②②|④---|
20
口口②②|①---|
口①口②|②---|
口①口口|③---|
口口口口|④---|

口口口口
口口③口
④④③口
④④口③
21
①口口<|①---|
口口口②|②---|
口口口口|③---|
口口①口|④---|

口口口④
③口<口
口口口口
口口口③
22
口口④④|①---|
口口口②|②③-④|
①<口③|----|
口①①口|----|

④口口口
④口口口
④口口口
口口口口
23
口①口口|①---|
口口口口|②---|
②口口口|③---|
口口①|④---|

③口口口
口口口口
口>口③
④口口口
24
口①①口|①---|
③口>①|②③-④|
②口口口|----|
④④口口|----|

口口口口
口口口④
口口口④
口口口④
25
①③口口|①--②|
口①口②|--③-|
口口①口|④---|
口口口口|⑤---|

⑤口口④
⑤口④口
口④口口
口口口口
26
⑤⑤⑤口|①--②|
口①④口|--③-|
②④①口|④---|
④口③①|⑤---|
27
⑤口口∨|①---|
②④∨口|②---|
③∨口口|③---|
口①①①|④-⑤-|

口口口口
口口口口
口口口口
口④③②
28
⑥②⑤③|①---|
⑥口口口|②-③-|
口②⑤口|④---|
①口口④|⑤-⑥-|
29
口②口③|①---|
口口②③|②-③-|
①②口口|④---|
①口口口|⑤-⑥-|

⑥⑥⑤口
口⑤口口
口口⑤④
口口口④
30
口口口口|①---|
口口口口|--②③|
口口③口|④-⑤⑥|
①口①②|⑦-⑧⑨|

口口⑦口
⑨口口④
口⑥口口
口⑧⑤口
31
口①口口|①---|
口∧口口|----|
口口口口|----|
口口口口|②---|

口②口口
口口口口
口口口口
口口口口
32
⑧口口⑦|①②③④|
⑥口口⑤|⑤⑥⑦⑧|
④口口③|⑨⑩⑪⑫|
②口口①|⑬---|

口口口口
口口口口
口⑩⑨⑬
口⑫⑪口
33
②②口①|①---|
口口口口|②---|
口口口口|③---|
①口②②|④-⑤-|

⑤⑤③口
③④④③
③④④③
口③⑤⑤
34
②口口①|①---|
口口口口|----|
口口口口|②---|
口口口口|----|
35
口口口口|①---|
①①<|----|
①①<|----|
①①<|----|
36
口口口口|①---|
口口口口|----|
口口口口|----|
口口口口|----|

口口口口
口①①口
口①①口
口①①口
37
④口口④|①---|
①口口①|②---|
①③口①|③---|
口口②口|④---|
38
口③④∨|①---|
⑥⑦⑧⑤|②-③④|
①口⑨①|⑤---|
∧口口∧|⑥⑦⑧⑨|

口口口口
口口口口
②口口②
口口口口
39
口口③口|①-②-|
口④口口|--③④|
口口口口|⑤--⑥|
口口①口|--⑦-|

⑦口口口
口口口口
⑤⑦口口
口⑥⑥口

口口口口
口口口②
口口口口
口口口口
40
∨④③口|①---|
⑤⑧⑦⑥|②-③④|
口⑨口①|⑤---|
口口口∧|⑥⑦⑧⑨|

口口口口
口口口口
口口口②
口口口口
41
口③口口|①-②-|
口口④口|--③④|
口口口口|⑤--⑥|
口①口口|--⑦-|

口口口⑦
口口口口
口口⑦⑤
口⑥⑥口

口口口口
②口口口
口口口口
口口口口
42
①口②口|①---|
①口口④|②-③-|
①⑤⑤④|④---|
口③口④|--⑤-|
43
③口口②|①-②-|
④④口②|③④--|
口口口口|⑤-⑥⑦|
①①口口|⑧-⑨-|

⑨⑥⑦⑧
口口∨∧
⑥⑦⑧口
口口⑤⑤

口口口⑨
口口口口
口口⑨口
口口口口
44
口②口口|①---|
②②口口|②---|
②口口口|③---|
①①口口|④-⑤-|

④口④口
口口口③
口口③③
口⑤③⑤
45
⑤>⑥①|①-②③|
口⑤①口|④-⑤-|
②③④口|⑥---|
口口④口|⑦---|

口口⑦口
口口口口
口口口口
口口口口
46
口口口口|①--②|
④口①口|③-④-|
口口口口|⑤-⑥-|
②口口③|⑦--⑧|

口口⑥⑤
口口>⑦
口口⑤⑥
口口口口

口口口口
口口口⑧
口口口口
口口口口
47
口口口④|①--②|
口①口口|③-④-|
口口口口|⑤-⑥-|
③口口②|⑦--⑧|

⑤⑥口口
⑦<口口
⑥⑤口口
口口口口

口口口口
⑧口口口
口口口口
口口口口
48
④③⑥⑦|①---|
口口口①|②-③④|
口⑤②口|-⑤-⑥|
⑧①①口|⑦-⑧-|
49
②口口口|①②③④|
口⑥①口|⑤-⑥⑦|
④⑦⑤口|⑧⑨-⑩|
口⑤口③|⑪-⑫-|

⑩⑪⑨⑧
⑪口口⑨
口口口口
口⑫⑫口
50
口口口口|①--②|
④口①口|③-④-|
口口口口|⑤-⑥-|
②口口③|⑦--⑧|

口口⑥⑤
口口>⑦
口口⑤⑥
口口口口

口口口口
口口口⑧
口口口口
口口口口
51
口口口④|①--②|
口①口口|③-④-|
口口口口|⑤-⑥-|
③口口②|⑦--⑧|

⑤⑥口口
⑦<口口
⑥⑤口口
口口口口

口口口口
⑧口口口
口口口口
口口口口
52
口口③口|①-②-|
口口②③|③-④-|
口④①②|⑤-⑥-|
④口口①|⑦-⑧-|

⑧⑥口⑦
⑥⑤口口
⑤口口口
口⑦口⑧
53
口口口口|①-②-|
④②口①|③-④-|
口③①∧|⑤-⑥-|
①口∧口|⑦-⑧-|

⑦⑤口口
口口口口
口口口口
⑧⑥口口
54
④②②④|①---|
①①①口|②---|
口①口口|③---|
③口口③|④---|

口口口口
口口口①
口口①口
口口口口
55
口口口口|①---|
口∨∨②|----|
①口口①|②---|
口①①口|--③-|

口口口口
口口口口
口口口口
口③③口
56
②④⑥口|①---|
∧∧口口|----|
①口口①|②-③④|
口口∧口|-⑤⑥-|

③⑤口口
口口口口
口口口口
口口口口
57
②口■口|①---|
口口口口|----|
②①口口|②---|
口口口口|----|
58
⑤②口口|--①-|
①③口口|-②--|
②④口口|③--④|
④①③口|--⑤-|

口口⑤口
口口口口
口口口口
口口口口
59
口口口口|①---|
口口口口|----|
口口①口|----|
口口口口|----|

60
口口口口|①---|
口口口口|----|
口①口口|----|
口口口口|----|
61
口口口口|①---|
口口口①|----|
口口口口|----|
口口口口|----|

62
口口口口|①---|
①口口口|----|
口口口口|----|
口口口口|----|
63
口①口口|①--②|
④③①口|③-④-|
口口口口|⑤-⑥-|
②口口③|⑦--⑧|

口口⑥⑤
口口>⑦
口⑤⑤⑥
口⑦口口

口口口口
口口口⑧
口口口口
口口口口
64
①③口口|①-②-|
口②④口|③-④-|
①③口口|⑤--⑥|
口⑤③①|⑦-⑧-|

口口⑤<
口口口口
口⑧⑤<
⑦口口口

口口⑥口
口口口口
口口⑥口
口口口口
65
①⑥⑥①|①---|
②>④∧|②-③-|
④口③口|④---|
⑤口>④|⑤-⑥-|

口口口②
口口⑤口
口口口口
口口口⑤
66
①口口①|①---|
③②③②|②---|
口①①口|③---|
口口④口|④---|
67
⑦⑧④③|①②-③|
口口口口|④-⑤⑥|
口口口口|-⑦⑧-|
①②⑥⑤|----|
68
⑥口①口|①②-③|
⑤③②口|④-⑤⑥|
口④⑤⑥|-⑦⑧-|
①②④③|⑨⑩⑪⑫|

口⑨⑧⑦
口⑩口口
⑦⑪口口
⑧⑫口口
69
⑧⑫⑫④|①②③④|
⑦⑪⑪③|--⑤⑥|
⑥⑩⑩②|⑦⑧--|
⑤⑨⑨①|⑨⑩⑪⑫|
最終更新:2024年08月29日 07:15