アットウィキロゴ
おにぎりディスコ
Blanc Bunny Bandit

BASIC

Level: 1
BPM: 118
Notes: 100

1
口口口口 |----|
口口口口 |----|
口口口口 |----|
口口口口 |----|
2
口口口口 |①---|
口口口口 |----|
口口口口 |----|
口口口① |----|
3
口口口口 |①---|
口口口口 |----|
口口口口 |----|
口口①口 |----|
4
口口口口 |①---|
口口口口 |----|
口口口口 |----|
口①口口 |----|
5
口口口口 |①---|
口口口口 |----|
口口口口 |----|
①口口口 |----|
6
口口口口 |①---|
口口口口 |----|
口口①口 |----|
口口口口 |----|
7
口口口口 |①---|
口口口口 |----|
口①口口 |----|
口口口口 |----|
8
口口口口 |①---|
口口①口 |----|
口口口口 |----|
口口口口 |----|
9
口口口口 |①---|
口①口口 |----|
口口口口 |----|
口口口口 |----|
10
口口口① |①---|
口口口② |----|
口口口口 |②---|
口口口口 |----|
11
口口口口 |①---|
口口口口 |----|
口口口① |----|
口口口口 |----|
12
口口口口 |①---|
口口口口 |----|
口口②口 |②---|
口口①口 |----|
13
口口口口 |①---|
口口①口 |----|
口口口口 |----|
口口口口 |----|
14
口①口口 |①---|
口②口口 |----|
口口口口 |②---|
口口口口 |----|
15
口口口口 |①---|
口口口口 |----|
口①口口 |----|
口口口口 |----|
16
口口口口 |①---|
口口口口 |----|
②口口口 |②---|
①口口口 |----|
17
口口口口 |①---|
①口口口 |----|
口口口口 |----|
口口口口 |----|
18
口口①口 |①---|
口②口口 |----|
口口口口 |②---|
口口口口 |----|
19
口口口口 |①---|
口口口口 |----|
口口①口 |②---|
口②口口 |----|
20
口口口口 |①---|
口口口口 |----|
口②口口 |②---|
口口①口 |----|
21
口②口口 |①---|
口口①口 |----|
口口口口 |②---|
口口口口 |----|
22
口③②① |----|
口口口口 |①---|
口口口口 |②---|
口口口口 |③---|
23
①口口口 |①---|
②口口口 |②---|
③口口口 |③---|
④口口口 |④---|
24
口口口口 |①---|
口口口口 |----|
口①①口 |----|
口口口口 |----|
25
口口口口 |----|
口口口口 |----|
口口口口 |----|
口口口口 |----|
26
③②①口 |①---|
口口口口 |②---|
口口口口 |③---|
口口口口 |----|
27
口口口口 |①---|
③②①口 |②---|
口口口口 |③---|
口口口口 |----|
28
口口口口 |①---|
口口口口 |②---|
③②①口 |③---|
口口口口 |----|
29
口口口口 |①---|
口口口口 |②---|
口口口口 |③---|
③②①口 |----|
30
口①②③ |①---|
口口口口 |②---|
口口口口 |③---|
口口口口 |----|
31
口口口口 |①---|
口①②③ |②---|
口口口口 |③---|
口口口口 |----|
32
口口口口 |①---|
口口口口 |②---|
口①②③ |③---|
口口口口 |----|
33
口口口口 |①---|
口口口口 |②---|
口口口口 |③---|
口①②③ |----|
34
口口口口 |①---|
口口口口 |----|
口①①口 |----|
口口口口 |----|
35
口口口口 |①---|
口①①口 |----|
口口口口 |----|
口口口口 |----|
36
口口口口 |①---|
口口口口 |----|
口①①口 |----|
口口口口 |----|
37
口口口口 |①---|
口①①口 |----|
口口口口 |----|
口口口口 |----|
38
口口口口 |①---|
口口口口 |----|
口①①口 |----|
口口口口 |----|
39
口口口口 |①---|
口①①口 |----|
口口口口 |----|
口口口口 |----|
40
口口口口 |①---|
口口口口 |----|
口①①口 |----|
口口口口 |----|
41
口口口口 |①---|
口①①口 |----|
口口口口 |----|
口口口口 |----|
42
③②①口 |①---|
口口口口 |②---|
口口口口 |③---|
口口口口 |----|
43
口口口口 |①---|
③②①口 |②---|
口口口口 |③---|
口口口口 |----|
44
口口口口 |①---|
口口口口 |②---|
③②①口 |③---|
口口口口 |----|
45
口口口口 |①---|
口口口口 |②---|
口口口口 |③---|
③②①口 |----|
46
口①②③ |①---|
口口口口 |②---|
口口口口 |③---|
口口口口 |----|
47
口口口口 |①---|
口①②③ |②---|
口口口口 |③---|
口口口口 |----|
48
口口口口 |①---|
口口口口 |②---|
口①②③ |③---|
口口口口 |----|
49
口口口口 |①---|
口①①口 |----|
口口口口 |----|
口口口口 |----|

accuracy: 99.5%
最終更新:2023年01月17日 10:54