アットウィキロゴ
おにぎりディスコ
Blanc Bunny Bandit

ADVANCED

Level: 4
BPM: 118
Notes: 278

1
口口口口 |----|
口口口口 |----|
口口口口 |----|
口口口口 |----|
2
②口口② |①---|
口口口口 |---②|
口口口口 |----|
口口口① |----|
3
②口口② |①---|
口口口口 |---②|
口口口口 |----|
①口口口 |----|
4
②口口② |①---|
口口口口 |---②|
口口口口 |----|
口口口① |----|
5
②口口② |①---|
口口口口 |---②|
口口口口 |----|
①口口口 |----|
6
口口口④ |①---|
口口③口 |②---|
口口口② |③---|
口口①口 |④---|
7
④口口口 |①---|
口③口口 |②---|
②口口口 |③---|
口①口口 |④---|
8
口口口④ |①---|
口口③口 |②---|
口口口② |③---|
口口①口 |④---|
9
④口口口 |①---|
口③口口 |②---|
②口口口 |③---|
口①口口 |④---|
10
口①①口 |①---|
口③③口 |②---|
口②②口 |③---|
口④④口 |④---|
11
②口口① |①---|
②口口① |----|
口口口口 |②---|
口口口口 |----|
12
口③③口 |①---|
口①①口 |②---|
口④④口 |③---|
口②②口 |④---|
13
②口口① |①---|
②口口① |----|
口口口口 |②---|
口口口口 |----|
14
④口口④ |①---|
②口口② |②---|
③口口③ |③---|
①口口① |④---|
15
口④④口 |①---|
口②②口 |②---|
口③③口 |③---|
口①①口 |④---|
16
②口口② |①---|
口口③口 |----|
口③口口 |②---|
①口口① |③---|
17
③②②③ |①---|
口①口口 |②-③-|
口口①口 |④---|
口④④口 |----|
18
口口口口 |①---|
口口口口 |----|
口口②① |②---|
口口口口 |----|
19
口口口口 |----|
①口口口 |①---|
口口口口 |----|
①口口口 |----|
20
口口口口 |①---|
口口口口 |----|
①②口口 |②---|
口口口口 |----|
21
口口口口 |----|
口口口① |①---|
口口口口 |----|
口口口① |----|
22
②口①① |----|
②口口口 |①---|
口口口口 |②---|
③③口口 |③---|
23
③口②② |①---|
③口口口 |②---|
口口口① |③---|
④④口① |④---|
24
口口口口 |①---|
口①口① |----|
口口①口 |----|
口口口口 |----|
25
口口口口 |----|
口口③口 |----|
口口②口 |--①-|
口口①口 |②-③-|
26
③口①③ |①---|
口⑥口口 |②--③|
口⑤口口 |--④-|
②④口口 |⑤-⑥-|
27
③①口③ |①---|
口口⑥口 |②--③|
口口⑤口 |--④-|
口口④② |⑤-⑥-|
28
③口①③ |①---|
口⑥口口 |②--③|
口⑤口口 |--④-|
②④口口 |⑤-⑥-|
29
③①口③ |①---|
口口⑤口 |②--③|
口口④口 |----|
口口口② |④-⑤-|
30
③口①③ |①---|
口⑥口口 |②--③|
口⑤口口 |--④-|
②④口口 |⑤-⑥-|
31
③①口③ |①---|
口口⑥口 |②--③|
口口⑤口 |--④-|
口口④② |⑤-⑥-|
32
③口①③ |①---|
口口口⑥ |②--③|
口④④口 |--④-|
②⑤⑤口 |⑤-⑥-|
33
③口口② |①-②-|
①⑤口口 |③④-⑤|
口口④口 |----|
口口口口 |----|
34
②④③① |①---|
口口口口 |②---|
口口口口 |③---|
①③④② |④---|
35
口口口口 |①---|
口③口① |②---|
④口②口 |③---|
口口口口 |④---|
36
①③④② |①---|
口口口口 |②---|
口口口口 |③---|
②④③① |④---|
37
口口口口 |①---|
①口③口 |②---|
口②口④ |③---|
口口口口 |④---|
38
②④③① |①---|
口口口口 |②---|
口口口口 |③---|
①③④② |④---|
39
口口口口 |①---|
口③口① |②---|
④口②口 |③---|
口口口口 |④---|
40
①③④② |①---|
口口口口 |②---|
口口口口 |③---|
②④③① |④---|
41
③口口③ |①---|
口②②口 |②--③|
口①①口
口口口口

口口口口
口口⑥口
口口⑤口 |--④-|
口口④口 |⑤-⑥-|
42
③口①③ |①---|
口②口口 |②--③|
口口口口
②口口口

口口口口
口⑥口口
口⑤口口 |--④-|
口④口口 |⑤-⑥-|
43
③①口③ |①---|
口口②口 |②--③|
口口口口
口口口②

口口口口
口口⑥口
口口⑤口 |--④-|
口口④口 |⑤-⑥-|
44
③口①③ |①---|
口②口口 |②--③|
口口口口
②口口口

口口口口
口⑥口口
口⑤口口 |--④-|
口④口口 |⑤-⑥-|
45
③①口③ |①---|
口口②口 |②--③|
口口口口
口口口②

口口口口
口口⑤口
口口④口 |----|
口口口口 |④-⑤-|
46
③口①③ |①---|
口②口口 |②--③|
口口口口
②口口口

口口口口
口⑥口口
口⑤口口 |--④-|
口④口口 |⑤-⑥-|
47
③①口③ |①---|
口口②口 |②--③|
口口口口
口口口②

口口口口
口口⑥口
口口⑤口 |--④-|
口口④口 |⑤-⑥-|
48
③口①③ |①---|
口②口口 |②--③|
口④④口 |--④-|
②⑤⑤口 |⑤---|
49
口口①口 |①---|
口①①① |----|
口口口口 |----|
口口口口 |----|

accuracy: 99.5%
最終更新:2023年01月17日 10:54