アットウィキロゴ
おにぎりディスコ
Blanc Bunny Bandit

EXTREME

Level: 7
BPM: 118
Notes: 584

1
口口口口 |----|
口口口口 |----|
口口③① |--①-|
口口口② |②-③-|
2
④④口口 |①---|
②③口口 |②③-④|
⑤⑦口口 |--⑤-|
⑥口①口 |⑥-⑦-|
3
口口②③ |①---|
口口③② |②--③|
口口⑥④ |--④-|
口①口⑤ |⑤-⑥-|
4
③②口口 |①---|
②③口口 |②--③|
④⑥口口 |--④-|
⑤口①口 |⑤-⑥-|
5
口口口口 |①---|
口口②③ |②--③|
口口③②
口①口口

口⑤⑤口
口口口口
口口口口 |--④-|
口④④口 |⑤---|
6
⑥⑦口③ |①-②-|
①④④① |③---|
⑥②⑤③ |④-⑤-|
口口口口 |⑥-⑦-|
7
口④③口 |①-②-|
⑥⑦口④ |③---|
口①③① |④-⑤-|
⑥口②⑤ |⑥-⑦-|
8
①③口① |①-②-|
④口②④ |③-④-|
口③口口
口口口口

⑦口⑤口
口口口口
口口口⑧ |⑤-⑥-|
口⑥口口 |⑦-⑧-|
9
口口口口 |①-②-|
口口口③ |③-④-|
①②①口
口口④③

口⑥口口
⑤口口口
口⑦⑦口 |⑤-⑥-|
⑤口口口 |⑦---|
10
②口口口 |①-②③|
口③口① |④-⑤⑥|
④口口口
口⑥⑤口

⑩⑬⑫口
口口⑨口
⑪⑧⑦口 |⑦⑧⑨⑩|
口口口口 |-⑪⑫⑬|
11
口口口口 |①②③-|
⑤⑥口① |④-⑤⑥|
口口②口
④口口③

口⑪⑨⑬
口口口口
⑩⑦⑫⑧ |⑦⑧⑨-|
口口口口 |⑩⑪⑫⑬|
12
口口⑦口 |-①②③|
⑤④③口 |④⑤⑥⑦|
口⑥口口
口②①口

⑩⑧口⑨
口口⑮⑮
⑫口⑪口 |⑧⑨⑩⑪|
⑭口⑬口 |⑫⑬⑭⑮|
13
⑧①②⑧ |-①②③|
口③口口 |④⑤⑥⑦|
⑨⑦④⑨ |⑧--⑨|
口⑤⑥口 |----|
14
⑭⑧⑦⑪ |①②③④|
⑥⑮⑫⑤ |⑤⑥⑦⑧|
⑯⑩⑨⑬ |⑨⑩⑪⑫|
④②①③ |⑬⑭⑮⑯|
15
口④口④ |①②③④|
⑤口⑤口 |-⑤-⑥|
口⑥③⑥
口②①口

⑩⑪⑧口
口⑫口⑦
口口⑨口 |⑦⑧-⑨|
口口口口 |⑩⑪⑫-|
16
口口口⑦ |①②-③|
口口⑤④ |④⑤⑥⑦|
②口⑥口
口①口③

⑧⑬⑪口
⑪⑨⑫口
口⑩口⑪ |⑧⑨⑩-|
口⑪口口 |⑪-⑫⑬|
17
口口口③ |①②③-|
口⑤口④ |④-⑤-|
②口①口
⑤口④口

⑨⑧口口
口口⑥口
口口⑦口 |⑥⑦⑧-|
口口口口 |⑨---|
18
⑧⑧①口 |①-②③|
口②③① |--④-|
口⑥⑦⑤ |⑤-⑥⑦|
④④⑤口 |--⑧-|
19
口口口口 |①---|
口口①口 |②---|
②口口口
②②口口

⑤口口口
③口⑥口
口④口口 |③-④-|
口口③⑤ |⑤-⑥-|
20
口⑤④④ |①--②|
⑤⑦⑥口 |③-④-|
①③②口 |⑤--⑥|
口①⑧⑧ |⑦-⑧-|
21
⑤③②② |①---|
口⑥④② |②---|
口①⑥③ |③-④-|
口口口⑤ |⑤-⑥-|
22
②口口③ |----|
口口①口 |①---|
口①口口 |②---|
③口口② |③---|
23
④口口口 |①---|
③①④口 |②---|
口②口① |③---|
口口③② |④---|
24
口①①口 |①---|
口①口① |----|
①①口口 |----|
①①口口 |----|
25
②口口⑥ |--①-|
①⑤口口 |②---|
口口口④ |③-④-|
口③口③ |⑤-⑥-|
26
口①④⑤ |①--②|
口口⑤④ |③④-⑤|
①口①口
口③②口

口口口口
口⑧口口
口口⑦口 |--⑥-|
⑥口口口 |⑦-⑧-|
27
⑤④口口 |①--②|
④⑤①口 |③④-⑤|
口①口①
口②③口

口口口口
口口⑧口
口⑦口口 |--⑥-|
口口口⑥ |⑦-⑧-|
28
口①④⑤ |①--②|
口口⑤④ |③④-⑤|
①口①口
口③②口

口口口口
⑥口口口
口口⑦口 |--⑥-|
⑧口口口 |⑦-⑧-|
29
⑤④口口 |①--②|
④⑤①口 |③④-⑤|
口①口①
口②③口

口口口⑥
口口口口
口⑦口口 |----|
口口口口 |⑥-⑦-|
30
口①④⑤ |①--②|
口口⑤④ |③④-⑤|
①口①口
口③②口

口口口口
口⑧口口
口口⑦口 |--⑥-|
⑥口口口 |⑦-⑧-|
31
⑤④口口 |①--②|
④⑤①口 |③④-⑤|
口①口①
口②③口

口口口口
口口⑧口
口⑦口口 |--⑥-|
口口口⑥ |⑦-⑧-|
32
口①④⑤ |①--②|
口口⑤④ |③④-⑤|
①口①口
口③②口

口⑦口口
⑦⑥口口
⑧口口⑧ |--⑥-|
口口口口 |⑦-⑧-|
33
①口口① |①-②-|
口口口口 |③④-⑤|
⑤③③⑤
②④④②

⑥口口⑥
口口口口
口口口口 |----|
口口口口 |⑥---|
34
④④①③ |①---|
口②口③ |②---|
②口②① |③---|
③①④口 |④---|
35
④④④④ |①---|
①②①② |②---|
②①②① |③---|
③③③③ |④---|
36
口口③③ |①---|
②④①① |②---|
②①②口 |③---|
④③④口 |④---|
37
②②②② |①---|
③④③④ |②---|
①①①① |③---|
④③④③ |④---|
38
④④①③ |①---|
②口口③ |②---|
②①②① |③---|
口③④口 |④---|
39
④④④④ |①---|
①②①② |②---|
②①②① |③---|
③③③③ |④---|
40
口口口口 |①---|
①①口② |②---|
口②①②
口口口口

③③口口
④口④口
口口口口 |③---|
口④③④ |④---|
41
②②②② |①---|
口①口① |②--③|
①口①口
③口③口

口口口⑥
口⑥口⑤
口⑤口④ |--④-|
口④口口 |⑤-⑥-|
42
②①③④ |①---|
口口④③ |②③-④|
①口①口
口口口口

口口口口
口⑦口⑦
⑥口⑥口 |--⑤-|
⑤口口⑤ |⑥-⑦-|
43
⑤④口口 |①--②|
④⑤①口 |③④-⑤|
口①口①
口②③口

口口口口
⑧口⑧口
口⑦口⑦ |--⑥-|
⑥口口⑥ |⑦-⑧-|
44
口①④⑤ |①--②|
口口⑤④ |③④-⑤|
①口①口
口③②口

口口口口
⑥⑥口口
⑦口⑦口 |--⑥-|
⑧口口⑧ |⑦-⑧-|
45
⑤④口口 |①--②|
④⑤①口 |③④-⑤|
口①口①
口②③口

口口口⑥
口口⑦口
口口口⑥ |----|
口口口⑦ |⑥-⑦-|
46
口①④⑤ |①--②|
口口⑤④ |③④-⑤|
①口①口
口③②口

口口口口
口⑧口⑧
⑦口⑦口 |--⑥-|
⑥口口⑥ |⑦-⑧-|
47
⑤④口口 |①--②|
④⑤①口 |③④-⑤|
口①口①
口②③口

口口口口
⑧口⑧口
口⑦口⑦ |--⑥-|
⑥口口⑥ |⑦-⑧-|
48
口①④⑤ |①--②|
口口⑤④ |③④-⑤|
①口①口
口③②口

⑦⑥口口
⑦⑥口口
口口口⑧ |--⑥-|
口口口口 |⑦-⑧-|
49
口③④口 |①-②-|
口口口口 |③④-⑤|
①⑤⑤口 |----|
⑤口②⑤ |----|

accuracy: 99.5%
最終更新:2023年01月17日 10:55