アットウィキロゴ
ランカーキラーガール
中島由貴 × いちか

BASIC

Level: 4
BPM: 200
Notes: 277

1
口口口口 |----|
口口口口 |----|
口口口口 |----|
口口口口 |----|
2
口口口口 |①---|
①①口口 |----|
口口口口 |----|
口口口口 |----|
3
口口口口 |①---|
口口口口 |----|
口口口口 |----|
口①①口 |----|
4
口口口口 |①---|
口口①① |----|
口口口口 |----|
口口口口 |----|
5
口口口口 |①---|
口口口口 |----|
口口口口 |----|
口①①口 |----|
6
口口口口 |①---|
口口口口 |----|
①①②② |②---|
口口口口 |----|
7
①①②② |①---|
口口口口 |----|
口口口口 |②---|
口口口口 |----|
8
口口口口 |①---|
口口口口 |----|
口口①口 |----|
口口口口 |----|
9
口口口口 |----|
口口口口 |----|
口口口口 |----|
口口口口 |----|
10
口口口口 |①---|
②②②② |----|
口①①口 |----|
口口口口 |--②-|
11
口口口口 |----|
口口口口 |----|
口口口口 |----|
口口口口 |----|
12
①口口口 |①---|
口口口口 |----|
口口口口 |----|
口口口口 |----|
13
口口口口 |①---|
口口口口 |----|
口①口口 |----|
口口口口 |----|
14
①口口口 |①---|
②口口口 |----|
口口口口 |②---|
口口口口 |----|
15
口①②口 |①---|
口口口口 |----|
口口口口 |②---|
口口口口 |----|
16
口口口① |①---|
口口口口 |----|
口口口口 |----|
口口口口 |----|
17
口口口口 |①---|
口口口口 |----|
口口①口 |----|
口口口口 |----|
18
口口口① |①---|
口口口② |----|
口口口口 |②---|
口口口口 |----|
19
口②①口 |①---|
口口口口 |----|
口口口口 |②---|
口口口口 |----|
20
①口口口 |①---|
口②口口 |----|
口口口口 |②---|
口口口口 |----|
21
口口口① |①---|
口口②口 |----|
口口口口 |②---|
口口口口 |----|
22
口①①口 |①---|
口②②口 |----|
口口口口 |②---|
口口口口 |----|
23
口口口口 |①---|
口口口口 |----|
口①①口 |②---|
口②②口 |----|
24
口口口口 |①---|
口③③口 |----|
②口口① |②---|
口口口口 |--③-|
25
口口口口 |----|
口口口口 |--①-|
口口口口 |----|
口①①口 |----|
26
口口口① |①---|
口口口口 |----|
口口口口 |----|
口口口口 |----|
27
口口口口 |①---|
口口口口 |----|
口口①口 |----|
口口口口 |----|
28
口口口① |①---|
口口口② |----|
口口口口 |②---|
口口口口 |----|
29
口②①口 |①---|
口口口口 |----|
口口口口 |②---|
口口口口 |----|
30
①口口口 |①---|
口口口口 |----|
口口口口 |----|
口口口口 |----|
31
口口口口 |①---|
口口口口 |----|
口①口口 |----|
口口口口 |----|
32
①口口口 |①---|
②口口口 |----|
口口口口 |②---|
口口口口 |----|
33
口①②口 |①---|
口口口口 |----|
口口口口 |②---|
口口口口 |----|
34
口口口① |①---|
口口②口 |----|
口口口口 |②---|
口口口口 |----|
35
①口口口 |①---|
口②口口 |----|
口口口口 |②---|
口口口口 |----|
36
口①①口 |①---|
口②②口 |----|
口口口口 |②---|
口口口口 |----|
37
口口口口 |①---|
口口口口 |----|
口①①口 |②---|
口②②口 |----|
38
口口口口 |①---|
口③③口 |----|
①口口② |②---|
口口口口 |--③-|
39
口口口口 |----|
口口口口 |--①-|
口口口口 |----|
口①①口 |----|
40
口口口口 |①---|
①①①① |----|
口口口口 |----|
口口口口 |----|
41
①①②② |①---|
口口口口 |--②-|
口口口口 |----|
口口口口 |----|
42
口③口口 |①---|
口②口口 |②---|
口①口口 |③---|
口④④口 |--④-|
43
口口②口 |----|
口口①口 |①---|
口口口口 |②---|
口③③口 |--③-|
44
口口口口 |----|
②口口① |①---|
口口口口 |②---|
口③③口 |--③-|
45
①口口① |----|
口口口口 |--①-|
口口口口 |----|
口口口口 |----|
46
口口口口 |①---|
口②口口 |----|
口口①口 |②---|
口口口口 |----|
47
口口口口 |①---|
口口①口 |----|
口②口口 |②---|
口口口口 |----|
48
①①②② |①---|
口③③口 |--②-|
口③③口 |----|
口口口口 |--③-|
49
口口口口 |----|
口口口口 |----|
口口口口 |----|
口口口口 |----|
50
口口③口 |①---|
口口②口 |②---|
口口①口 |③---|
口④④口 |--④-|
51
口②口口 |----|
口①口口 |①---|
口口口口 |②---|
口③③口 |--③-|
52
口口口口 |----|
①口口② |①---|
口口口口 |②---|
口③③口 |--③-|
53
①口口① |----|
口口口口 |--①-|
口口口口 |----|
口口口口 |----|
54
口口口口 |①---|
口口②口 |----|
口①口口 |②---|
口口口口 |----|
55
口口口口 |①---|
口①口口 |----|
口口②口 |②---|
口口口口 |----|
56
②口口① |①---|
②口口① |--②-|
③③③③ |----|
口口口口 |--③-|
57
口口口口 |----|
口口口口 |----|
口口口口 |----|
口口口口 |----|
58
口口口口 |①---|
口口口口 |②---|
口口口口 |③---|
①②③④ |④---|
59
口口口口 |①---|
口口口口 |②---|
④③②① |③---|
口口口口 |④---|
60
口口口口 |①---|
①②③④ |②---|
口口口口 |③---|
口口口口 |④---|
61
④③②① |①---|
口口口口 |②---|
口口口口 |③---|
口口口口 |④---|
62
口口口口 |①---|
口口①口 |----|
口口口口 |②---|
口口②口 |----|
63
口口口口 |①---|
口②口口 |----|
口口口口 |②---|
口①口口 |----|
64
口口口口 |①---|
②口口② |----|
口①①口 |②---|
口口口口 |----|
65
口口口口 |①---|
口口口口 |----|
①口口① |②---|
②口口② |----|
66
口口口口 |①---|
口口口口 |----|
口②①口 |②---|
口口口口 |----|
67
②口口① |①---|
②口口① |--②-|
口口口口 |----|
口口口口 |----|
68
口口口口 |①---|
口口①口 |----|
口口口口
口口口口

口口口口
口口②口
口口口口 |----|
口口口口 |--②-|
69
口口口口 |----|
口口①口 |----|
口口口口 |----|
口口口口 |--①-|
70
口口口口 |----|
口口口口 |----|
口①①口 |----|
口口口口 |--①-|
71
口口口口 |----|
口口口口 |----|
口口口口 |----|
口口口口 |----|
72
口口口口 |①---|
①口口口 |----|
口口口口 |----|
口口口口 |----|
73
口口口口 |①---|
口口口① |----|
口口口口 |----|
口口口口 |----|
74
口口口口 |①---|
口口口口 |--②-|
②①①② |----|
口口口口 |----|
75
口口口口 |----|
口口②口 |----|
口口①口 |①---|
口口口口 |②---|
76
口口①口 |①---|
口③口口 |--②-|
口口口口 |----|
口②②口 |③---|
77
口①口口 |①---|
③口口口 |--②-|
口口口口 |----|
口②②口 |③---|
78
③口口③ |①---|
口口口① |--②-|
口口口口 |----|
口②②口 |--③-|
79
口口口口 |----|
口口口口 |----|
口①口口 |①---|
口口口口 |----|
80
口口口口 |①---|
口②①口 |----|
口口口口 |②---|
口口口口 |----|
81
③口口② |①---|
③口口② |----|
口口①口 |②---|
口口口口 |--③-|
82
口口口口 |----|
口口口口 |--①-|
口口口口 |----|
①口口① |----|
83
①口口① |①---|
口口口口 |----|
口口口口 |②---|
口②③口 |③---|
84
口口口口 |①---|
口③④口 |②---|
口①②口 |③---|
口口口口 |④---|
85
口①②③ |①---|
口口④口 |②---|
口口口口 |③---|
口口口口 |④---|
86
①口口口 |①---|
口②口③ |②---|
口口④口 |③---|
口口口口 |④---|
87
口③口口 |①---|
①口③口 |②---|
口②口口 |③---|
口口口口 |----|
88
口口①口 |----|
口①口口 |--①-|
口口口口 |----|
口口口口 |----|
89
①口口② |①---|
①口口② |--②-|
口口口口 |----|
口口口口 |----|
90
口口口口 |①---|
口①①口 |----|
口①①口 |----|
口口口口 |----|
91
口口口口 |----|
口口口口 |----|
口口口口 |①---|
口①①口 |----|
92
口口①口 |①---|
口口口① |----|
口口口口 |②---|
口②②口 |----|
93
口口口口 |----|
口口口口 |----|
口口口口 |①---|
口①①口 |----|
94
口①口口 |①---|
①口口口 |----|
口口口口 |②---|
口②②口 |----|
95
口口口口 |----|
口口口口 |----|
口口口① |①---|
口口①口 |----|
96
口口口口 |①---|
口口口② |----|
①口②口 |②---|
口①口口 |----|
97
②口口② |①---|
①②②口 |----|
口①口口 |②---|
口口口口 |----|
98
口口口口 |----|
口口口口 |----|
口口口口 |----|
口口口口 |----|
99
口口口口 |----|
①口口口 |----|
②口口口 |①---|
口口口口 |②---|
100
口口口口 |①---|
口口口② |----|
口口口③ |②---|
口①口口 |③---|
101
口口口口 |①---|
口②③口 |----|
口口口口 |②-③-|
口口①口 |----|

accuracy: 100%
最終更新:2022年05月04日 10:59