アットウィキロゴ
ランカーキラーガール
中島由貴 × いちか

ADVANCED

Level: 7
BPM: 200
Notes: 535

1
口口口口 |----|
口口口口 |----|
口口口口 |----|
口口口口 |----|
2
口口②② |①---|
口口口口 |----|
①①口口 |②---|
口口口口 |----|
3
口口口口 |①---|
口口口口 |----|
口口①① |----|
口口口口 |----|
4
②②口口 |①---|
口口口口 |----|
口口①① |②---|
口口口口 |----|
5
口口口口 |①---|
口口口口 |----|
①①口口 |----|
口口口口 |----|
6
②②口口 |①---|
口口口口 |----|
①①口口 |②---|
口口口口 |----|
7
②②②② |①---|
口口口口 |----|
口口①① |②---|
口口口口 |----|
8
口③③口 |①---|
②口口口 |②---|
④④口口 |③---|
①口口口 |--④-|
9
口口口③ |----|
②口口口 |①---|
口口口口 |②---|
口①口口 |③---|
10
口③③口 |①---|
口口口② |②---|
口口④④ |③---|
口口口① |--④-|
11
③口口口 |----|
口口口② |①---|
口口口口 |②---|
口口①口 |③---|
12
口口③② |--①-|
④口口口 |--②-|
口①口口 |③---|
口口口口 |--④-|
13
③口口口 |①-②-|
口①②口 |--③-|
⑤⑤口④ |--④-|
口口口口 |--⑤-|
14
口口口口 |----|
②口口① |①---|
口④口口 |②---|
口口③口 |③-④-|
15
口口口口 |--①-|
④②口口 |②---|
口口①③ |③---|
口口口口 |④---|
16
③④口口 |--①-|
口②①口 |②-③-|
口口口⑤ |④---|
口口口口 |--⑤-|
17
⑤口⑥⑥ |①-②-|
口③④口 |③-④-|
口②①口 |--⑤-|
口口口口 |--⑥-|
18
口口口口 |----|
①口口② |①---|
口口④口 |②---|
口③口口 |③-④-|
19
口口口口 |--①-|
口口②④ |②---|
③①口口 |③---|
口口口口 |④---|
20
口口口口 |--①-|
⑤口口口 |②-③-|
口①②口 |④---|
口③④口 |--⑤-|
21
⑥⑤④口 |①-②-|
口①②口 |--③-|
③口口口 |--④-|
口口口口 |⑤-⑥-|
22
口口口口 |----|
口②③口 |--①-|
口④口① |--②-|
口口口口 |③-④-|
23
口口口口 |----|
①口口① |①---|
口口口口 |----|
②口口② |②---|
24
口口口口 |--①-|
⑤⑥口口 |②-③-|
①②③④ |④---|
口口口口 |⑤-⑥-|
25
口①①口 |--①-|
口口口口 |--②-|
口口口口 |----|
口②②口 |----|
26
③④口口 |--①-|
口②①⑤ |②-③-|
口口口口 |④---|
口口口口 |--⑤-|
27
口口口③ |①-②-|
口②①口 |--③-|
④口⑤⑤ |--④-|
口口口口 |--⑤-|
28
口口口口 |----|
①口口② |①---|
口口口口 |②-③-|
口③④⑤ |④-⑤-|
29
口口口口 |--①-|
口口②④ |②---|
③①口口 |③---|
口口口口 |④---|
30
⑤口④③ |--①-|
⑤①②口 |②-③-|
口口口口 |④---|
口口口口 |--⑤-|
31
口口⑤⑤ |--①-|
口④口口 |--②-|
口②③① |③-④-|
口口口① |--⑤-|
32
口口④口 |----|
①③口② |①---|
口口口口 |②---|
口口口口 |③-④-|
33
①口口口 |--①-|
①口口口 |--②-|
口口口口 |----|
口②②口 |----|
34
口⑥⑤口 |--①-|
口口口口 |②-③-|
口②①口 |④---|
口④③口 |⑤-⑥-|
35
口口口口 |--①-|
口口③口 |②-③-|
口②①口 |----|
口口口口 |----|
36
①③④② |①---|
口①②口 |----|
口口口口 |②---|
口口口口 |③-④-|
37
口口口口 |--①-|
口口口② |--②-|
口①口口 |--③-|
口③③口 |----|
38
口口口口 |--①-|
口②③口 |--②-|
①口⑤① |③---|
口④口口 |④-⑤-|
39
口口口口 |--①-|
①口口② |--②-|
①口口② |--③-|
③口口③ |----|
40
①①①① |①---|
口口口口 |----|
口口口口 |----|
口口口口 |----|
41
口口口口 |①--②|
①②③口 |--③-|
①②③口 |----|
口口口口 |----|
42
⑤口④② |①---|
口③④口 |②---|
口③口口 |③-④-|
口①口口 |--⑤-|
43
④口③① |----|
口②③口 |①---|
口②口口 |②-③-|
口口口口 |--④-|
44
口②口① |----|
口②③口 |①---|
④口③口 |②-③-|
口④口口 |--④-|
45
③③口口 |--①-|
②口口② |--②-|
口口口① |----|
口口①口 |--③-|
46
口口口口 |--①-|
口②①口 |②---|
④⑤口口 |③---|
口口③口 |④-⑤-|
47
口①②口 |--①-|
口②①口 |--②-|
口口口口 |----|
口③口口 |--③-|
48
⑤⑤口口 |①-②-|
口口④④ |--③-|
③③口② |--④-|
口口①口 |--⑤-|
49
口口口口 |--①-|
口口口口 |②---|
口口①口 |----|
口②口口 |----|
50
②④口⑤ |①---|
口④③口 |②---|
口口③口 |③-④-|
口口①口 |--⑤-|
51
①③口④ |----|
口③②口 |①---|
口口②口 |②-③-|
口口口口 |--④-|
52
①口②口 |----|
口③②口 |①---|
口③口④ |②-③-|
口口④口 |--④-|
53
口口③③ |--①-|
②口口② |--②-|
①口口口 |----|
口①口口 |--③-|
54
口口口口 |--①-|
口①②口 |②---|
口口⑤④ |③---|
口③口口 |④-⑤-|
55
口②①口 |--①-|
口①②口 |--②-|
口口口口 |----|
口口③口 |--③-|
56
⑤口口口 |①-②-|
口⑥⑦口 |③-④-|
②③④口 |--⑤-|
口①口口 |⑥-⑦-|
57
口口口口 |----|
口口口口 |----|
口口口口 |----|
口口口口 |----|
58
②④④② |①---|
口口口口 |②---|
口口口口 |③---|
①③③① |④---|
59
②④④② |①---|
口口口口 |②---|
口口口口 |③---|
①③③① |④---|
60
口口口口 |①---|
②②④④ |②---|
③③①① |③---|
口口口口 |④---|
61
③②②④ |①---|
③口口④ |②---|
口口口口 |③---|
口①①口 |④---|
62
口口口口 |①---|
口口口口 |②---|
④①②③ |③---|
④①②③ |--④-|
63
①口口① |----|
口口口口 |--①-|
口口口口 |----|
口②②口 |--②-|
64
口口口口 |--①-|
④口口③ |②-③-|
②⑥⑤① |④-⑤-|
口口⑦口 |⑥-⑦-|
65
口①②口 |--①-|
口③④口 |②-③-|
口⑤⑥口 |④-⑤-|
口⑦口口 |⑥-⑦-|
66
口口口③ |----|
口口口③ |①---|
②口口① |②---|
②口口① |③---|
67
①③③口 |①--②|
①③③口 |--③-|
口②②口 |----|
口口口口 |----|
68
⑤口④② |①---|
口③口口 |②---|
口口口口 |③-④-|
口①口口 |--⑤-|
69
④口③① |----|
口②口口 |①---|
口口口口 |②-③-|
口口口口 |--④-|
70
口口口① |----|
口②口口 |①---|
④口③口 |②-③-|
④口口口 |--④-|
71
③口口口 |--①-|
②口口② |--②-|
口口口① |----|
口口口① |--③-|
72
口口口口 |--①-|
口②①口 |②---|
④⑤口口 |③---|
口口③口 |④-⑤-|
73
口①②口 |--①-|
口②①口 |--②-|
口口口口 |----|
口③口口 |--③-|
74
③口口④ |①-②-|
口③④口 |--③-|
口口口② |--④-|
口口①口 |----|
75
③口口口 |----|
①口口① |①---|
①口口① |②---|
口口②口 |③---|
76
④②口③ |①-②-|
口②①口 |--③-|
口口①口 |----|
口口口口 |④---|
77
④②口③ |①-②-|
口②①口 |--③-|
口口①口 |----|
口口口口 |④---|
78
口口①口 |①-②-|
⑤②①⑤ |--③-|
④②口③ |--④-|
口④③口 |--⑤-|
79
口口①① |----|
口②③口 |--①-|
口口口口 |--②-|
口口口口 |③---|
80
口⑤④口 |①---|
口④⑤口 |②-③-|
口口③② |--④-|
口①口口 |--⑤-|
81
口口口口 |----|
口口口口 |--①-|
③口④④ |②-③-|
口②①口 |--④-|
82
口口②② |--①-|
①①口口 |--②-|
口⑤口口 |--③-|
口③④口 |④-⑤-|
83
口②口口 |①---|
②口口口 |----|
口口①口 |②---|
口口口口 |----|
84
③口口口 |--①-|
口②口口 |②-③-|
口④①口 |----|
口口口口 |--④-|
85
②口口口 |①---|
口②口口 |----|
口口口口 |②---|
口口①口 |----|
86
口口口① |--①-|
口口②口 |②-③-|
口③④口 |--④-|
口⑤口口 |⑤---|
87
①口①口 |----|
①口①口 |----|
口口口口 |①---|
口口口口 |----|
88
口①口① |----|
口①口① |--①-|
口口口口 |----|
口口口口 |----|
89
口口口口 |①-②-|
③口口③ |--③-|
口③③口 |----|
口①②口 |----|
90
口口口口 |①---|
口①①口 |----|
①口口① |②---|
口②②口 |----|
91
①口口① |①---|
口口口口 |----|
②口②口 |②---|
口②口口 |----|
92
口①口① |①---|
口口①口 |----|
口②口② |②---|
口口②口 |----|
93
口口口口 |----|
口口口口 |----|
口①口① |①---|
口口①口 |----|
94
①口①口 |①---|
口①口口 |----|
②口②口 |②---|
口②口口 |----|
95
口口口口 |----|
口口口口 |----|
①口①口 |①---|
口①口口 |----|
96
口①口① |①---|
口口①口 |----|
口②口② |②---|
口口②口 |----|
97
①②①② |①---|
②①②口 |----|
口口口口 |②---|
口口口口 |----|
98
口口口口 |----|
口口口口 |----|
③口口④ |①-②-|
口①②口 |③-④-|
99
口口口口 |①-②-|
口①②口 |③-④-|
⑦③④⑧ |⑤-⑥-|
口⑤⑥口 |⑦-⑧-|
100
口口口口 |①-②-|
口①②口 |③-④-|
⑦③④⑧ |⑤-⑥-|
口⑤⑥口 |⑦-⑧-|
101
⑤口口⑥ |①-②-|
⑤①②⑥ |③-④-|
口③④口 |⑤-⑥-|
口口口口 |----|

accuracy: 100%
最終更新:2022年05月04日 11:10