アットウィキロゴ
ランカーキラーガール
中島由貴 × いちか

EXTREME

Level: 10.4
BPM: 200
Notes: 965

1
口口口口 |----|
口口口口 |----|
口口口口 |----|
口口口口 |----|
2
②口②口 |①---|
口②口口 |----|
口①口① |②---|
口口①口 |----|
3
口口口口 |①---|
口口口口 |----|
口①口① |----|
口口①口 |----|
4
口②口② |①---|
口口②口 |----|
①口①口 |②---|
口①口口 |----|
5
口口口口 |①---|
口口口口 |----|
①口①口 |----|
口①口口 |----|
6
②③口③ |①---|
口口③口 |②---|
①口①口 |③---|
口①口④ |④---|
7
②③口③ |①---|
③口③口 |②---|
①口①口 |③---|
口①口口 |----|
8
口口③口 |①-②-|
口口④口 |③-④-|
口①②口
口口口口

口口口口
⑤⑥口口
口⑧口口 |⑤-⑥-|
口⑦口口 |⑦-⑧-|
9
⑦口口⑥ |--①-|
口口口⑤ |②-③-|
口口③④ |④-⑤-|
口口②① |⑥-⑦-|
10
口③口口 |①-②-|
①④⑥⑤ |③-④-|
②①⑧口 |⑤-⑥-|
口②⑦⑧ |⑦-⑧-|
11
口口口口 |--①-|
⑥口口⑦ |②-③-|
④③⑥⑤ |④-⑤-|
①②口口 |⑥-⑦-|
12
①②口口 |①-②-|
口口①口 |--③-|
④口⑤口 |④---|
口口③口 |--⑤-|
13
④②③① |①-②-|
口⑤⑤③ |--③-|
⑥口口口 |--④-|
口口口口 |⑤-⑥-|
14
口口⑥口 |①-②-|
口口口⑤ |③---|
口④③① |④---|
口③④② |⑤-⑥-|
15
③口口② |--①-|
③口①④ |②---|
口口口④ |③---|
口⑤⑤口 |④-⑤-|
16
口口口口 |①-②-|
⑤口④口 |③-④-|
③⑥②口 |⑤---|
①口口口 |--⑥-|
17
①⑦②⑧ |①-②-|
⑤③⑥④ |③-④-|
口口口⑦ |⑤-⑥-|
口口口⑤ |⑦-⑧-|
18
口⑥口口 |①-②-|
⑤口口口 |③---|
①③④口 |④---|
②④③口 |⑤-⑥-|
19
②口口③ |--①-|
④①口③ |②---|
④口口口 |③---|
口⑤⑤口 |④-⑤-|
20
⑥口口口 |①-②-|
⑥④口⑤ |③-④-|
⑦②③③ |⑤---|
口口口① |⑥-⑦-|
21
口口①口 |①-②-|
口口口口 |③-④-|
口②口③
口④口③

口口⑦口
⑥⑥⑤口
口口口口 |--⑤-|
口口口口 |⑥-⑦-|
22
⑤口口⑥ |①②③④|
口⑧口⑨ |⑤-⑥-|
③①②④ |--⑦-|
口口⑦口 |⑧-⑨-|
23
⑤口口⑩ |①②③④|
口口口口 |⑤---|
③①②④ |⑥⑦⑧⑨|
⑨⑦⑥⑧ |⑩---|
24
口②⑤口 |①-②-|
⑥①①⑦ |③-④-|
口④③口 |⑤---|
⑦口口⑥ |⑥-⑦-|
25
①①②② |--①-|
③口口④ |--②-|
②②①① |--③-|
口口口口 |④---|
26
口口口口 |①-②-|
口口⑤口 |③-④-|
④⑥③口 |⑤---|
②①①口 |--⑥-|
27
①③②④ |①-②-|
③⑤⑤④ |--③-|
口口口⑥ |--④-|
口口口⑥ |⑤-⑥-|
28
口⑦⑦口 |①-②-|
⑥口⑥⑤ |③---|
①③④口 |④-⑤-|
②④③口 |⑥-⑦-|
29
②口口③ |--①-|
④①口③ |②---|
④口口口 |③---|
口⑤⑤口 |④-⑤-|
30
⑥口口口 |①-②-|
口④⑥⑤ |③-④-|
口②⑥③ |⑤---|
口口口① |--⑥-|
31
⑥⑥①⑤ |--①-|
①口⑤④ |--②-|
①③口口 |③-④-|
口②②口 |⑤-⑥-|
32
口⑤⑥口 |①-②-|
⑥口口⑤ |③---|
口④③① |④---|
口③④② |⑤-⑥-|
33
④口口④ |--①-|
口②①口 |②-③-|
⑤口①⑥ |④---|
⑦②③⑧ |⑤⑥⑦⑧|
34
口④③⑦ |①-②-|
⑤口口② |③-④-|
口①⑥口 |⑤---|
口口口口 |⑥-⑦-|
35
口口口口 |--①-|
③口②口 |②-③-|
口口口口 |④---|
⑤①口④ |⑤---|
36
口口①⑤ |①②③④|
口口口口 |⑤---|
④②①③
口口口口

⑩口⑪口
⑩⑥口⑪
口口口口 |⑥⑦⑧⑨|
⑧⑥⑦⑨ |⑩-⑪-|
37
⑦口口口 |--①-|
⑤口②口 |--②-|
①①②口 |③④⑤⑥|
⑤③④⑥ |⑦---|
38
口口口① |①-②-|
口③④口 |③-④-|
口②口口
口口口口

口口口⑦
⑥口口⑦
⑥口⑤口 |⑤---|
口口口口 |⑥-⑦-|
39
①①口口 |--①-|
口口口口 |--②-|
口③③② |--③-|
口②②③ |----|
40
①①①① |①-②③|
②③④⑨ |④-⑤-|
⑤口口⑨ |⑥⑦⑧-|
⑤⑧⑦⑥ |⑨---|
41
①③③② |①--②|
⑧③③⑨ |--③-|
⑥②①⑦ |--④⑤|
口④⑤口 |⑥⑦⑧⑨|
42
①④口② |①---|
口③口⑤ |②---|
④②①口 |③-④-|
口③口⑤ |--⑤-|
43
②⑤④⑤ |--①-|
①口③口 |②---|
口②口④ |③-④-|
①⑤③⑤ |--⑤-|
44
⑥口口口 |--①-|
①②⑤② |②-③-|
③④口④ |④-⑤-|
⑥⑥⑤口 |--⑥-|
45
⑤④①① |--①-|
口②⑤② |--②-|
②口②口 |③---|
口口③① |④-⑤-|
46
口口口口 |--①-|
口④⑤口 |②---|
②⑤④① |③---|
②③③① |④-⑤-|
47
①口②口 |--①-|
口口口② |--②-|
②口口③ |----|
口②③① |--③-|
48
③口⑥② |①-②-|
①⑤②口 |--③-|
口①④口 |-④⑤-|
③口⑥口 |--⑥-|
49
口②口② |--①-|
⑥口②③ |②③④⑤|
①口口④ |⑥---|
⑦①口⑤ |⑦---|
50
①④④② |①---|
口③③⑤ |②---|
④②①② |③-④-|
口③①⑤ |--⑤-|
51
③⑦⑥⑦ |①-②-|
②④⑤口 |③-④-|
口③①⑥ |⑤-⑥-|
②⑦⑤⑦ |--⑦-|
52
⑦口口口 |①-②-|
②③⑥③ |③-④-|
④⑤①⑤ |⑤-⑥-|
⑦⑦⑥口 |--⑦-|
53
⑤④①① |--①-|
口②⑤② |--②-|
②口②口 |③---|
口口③① |④-⑤-|
54
口口口口 |--①-|
口④⑤口 |②---|
②⑤④① |③---|
②③③① |④-⑤-|
55
①口②口 |--①-|
口口口② |--②-|
②口口③ |----|
口②③① |--③-|
56
⑦③④口 |①-②-|
③⑦⑥④ |③-④-|
⑤①②⑥ |--⑤-|
①⑤口② |⑥-⑦-|
57
口⑦口口 |--①②|
⑤口口⑥ |③④⑤⑥|
⑧③④⑧ |⑦---|
①口口② |⑧---|
58
⑦⑧②① |①②③④|
⑮⑯⑩⑨ |⑤⑥⑦⑧|
⑪⑫⑭⑬ |⑨⑩⑪⑫|
③④⑥⑤ |⑬⑭⑮⑯|
59
⑦⑧②① |①②③④|
⑮⑯⑩⑨ |⑤⑥⑦⑧|
⑪⑫⑭⑬ |⑨⑩⑪⑫|
③④⑥⑤ |⑬⑭⑮⑯|
60
⑧⑦①② |①②③④|
⑬⑭⑩⑨ |⑤⑥⑦⑧|
⑫⑪⑮⑯ |⑨⑩⑪⑫|
④③⑤⑥ |⑬⑭⑮⑯|
61
⑦⑧②① |①②③④|
⑬⑭⑩⑨ |⑤⑥⑦⑧|
⑫⑪⑮⑯ |⑨⑩⑪⑫|
③④⑥⑤ |⑬⑭⑮⑯|
62
口③④② |①---|
⑤口口口 |②---|
口⑤口口 |③-④-|
①④③⑤ |--⑤-|
63
①④口③ |--①-|
口口④② |--②-|
①④②③ |--③-|
②口④口 |--④-|
64
④口口⑧ |--①-|
⑤③口② |②-③-|
⑥口口⑧ |④⑤⑥-|
口①口⑦ |⑦-⑧-|
65
口①②⑬ |--①②|
⑨③④⑩ |③④⑤⑥|
⑪⑤⑥⑫ |⑦⑧⑨⑩|
⑬⑦⑧口 |⑪⑫⑬-|
66
②②①口 |--①-|
④④②⑦ |②-③-|
⑥⑥③⑥ |④-⑤-|
口口④⑤ |⑥-⑦-|
67
③③②① |①--②|
③③②口 |--③-|
④⑤⑥口 |--④⑤|
①①口口 |⑥---|
68
⑤口④① |①---|
②口③口 |②---|
口口口口 |③-④-|
①口口⑤ |--⑤-|
69
口口③④ |----|
口口②口 |①---|
口口口口 |②-③-|
④①口口 |--④-|
70
④①口口 |----|
口口口口 |①---|
口口②口 |②-③-|
口口③④ |--④-|
71
③②②① |--①-|
口口口口 |--②-|
口②②口 |----|
①口口口 |--③-|
72
口⑤口口 |--①-|
口口④① |②---|
口口②口 |③---|
③口口口 |④-⑤-|
73
②口口① |--①-|
口口口口 |--②-|
①口口② |----|
口③口口 |--③-|
74
④口口③ |①-②-|
口②口口 |--③-|
④口①③ |--④-|
⑧⑦⑥⑤ |⑤⑥⑦⑧|
75
⑦⑤口⑥ |①②③④|
①②③④ |⑤---|
口⑥⑦⑤ |⑥---|
口口口口 |⑦---|
76
口口②⑤ |①-②-|
③口①④ |--③-|
口口⑤② |--④-|
③口①④ |⑤---|
77
③②③口 |①-②-|
⑤①⑤④ |--③-|
②口口⑥ |--④-|
③①③口 |⑤-⑥-|
78
④④口③ |①-②-|
⑤②⑤口 |--③-|
①⑤①⑤ |--④-|
④②③③ |--⑤-|
79
口口②③ |①---|
口③口口 |②-③-|
④口口⑤ |--④-|
④①口⑤ |⑤---|
80
口口口口 |①---|
口③②口 |②-③-|
口②③口
口①①口

口⑤口④
⑤口口口
口口口⑤ |--④-|
④口⑤口 |--⑤-|
81
口④口口 |----|
④口口口 |--①-|
①③②口 |②-③-|
③①口② |--④-|
82
③口口② |--①-|
口⑤②④ |--②-|
③口⑤① |--③-|
口口①④ |④-⑤-|
83
②②①口 |①---|
③③口口 |----|
口口口② |②---|
口①口口 |③---|
84
口④③② |①-②-|
口口口口 |③-④-|
①①口口
③③口口

口口口口
口口口口
⑦口⑥⑥ |⑤---|
口口⑤⑤ |⑥-⑦-|
85
③③②② |①---|
④④①① |②---|
口①口口 |③---|
口口③③ |④---|
86
⑦④③② |①-②-|
⑥口口口 |③-④-|
①①⑦⑦ |⑤-⑥-|
③③⑤⑤ |⑦---|
87
口⑤口口 |①-②-|
⑤①②口 |③-④-|
⑤口口口 |⑤---|
③⑥⑥④ |⑥---|
88
口③口口 |①-②-|
③口②① |--③-|
③口①② |----|
口口④④ |④---|
89
③③口口 |①-②-|
③③②① |--③-|
口③①② |----|
③③口④ |④---|
90
③口口⑥ |①---|
口⑤④② |②---|
①口口口 |③-④-|
口口口口 |⑤-⑥-|
91
口③②口 |①-②-|
⑤口⑥口 |③-④-|
⑤⑤口口 |⑤---|
①⑤⑤④ |⑥---|
92
①②①④ |①---|
口①口③ |②---|
口口③③ |③---|
口③③口 |④---|
93
①口口口 |①---|
③④口口 |②---|
③③口口 |③---|
口③③② |④---|
94
④①②① |①---|
口口①③ |②---|
口口③③ |③---|
口③③口 |④---|
95
⑦④③⑤ |①②③④|
⑤②①口 |⑤---|
⑥口⑥口 |⑥---|
口⑥口口 |⑦---|
96
口口①② |①---|
口①口① |②---|
口③口③ |③---|
口口③④ |④---|
97
口①①口 |①---|
①①口口 |②---|
①口口口
②口口口

④⑤口③
口口③③
口③③口 |③---|
口口口口 |④-⑤-|
98
口⑦⑥口 |①-②-|
①②⑤口 |③-④-|
口④口口 |--⑤-|
口③口口 |⑥-⑦-|
99
②⑪口① |①②③④|
④⑫口③ |⑤⑥⑦⑧|
⑥⑩⑨⑤ |⑨-⑩-|
⑧口口⑦ |⑪-⑫-|
100
口口口口 |①-②-|
口口②① |③-④-|
口⑦④口 |--⑤-|
⑤⑥③口 |⑥-⑦-|
101
③④⑤口 |①-②-|
②⑤口① |③-④-|
①口⑥② |⑤-⑥-|
口⑥④③ |----|

accuracy: 100%
最終更新:2022年05月04日 12:01