アットウィキロゴ
VALLIS-NERIA [ 2 ]
DJ YOSHITAKA

EXTREME

Level: 10.4
BPM: 185
Notes(hold): 896(82)

1
口口口口 |----|
口口口口 |----|
口口口口 |----|
口口口口 |----|
2
口口口口 |①---|
口口口口 |----|
口口口口 |----|
①━━< |----|
3
>━━① |①---|
口口口口 |----|
口口口口 |----|
①口口口 |----|
4
口口口① |①---|
口口口口 |----|
①━━< |----|
口口口口 |----|
5
口口口口 |①---|
口口口口 |----|
①口口口 |②---|
口>━① |----|

口口口口
口口口口
口>━②
口口口②
6
>━━① |①---|
口口口口 |----|
口口口① |----|
口口口口 |----|
7
口口口① |①---|
口口口口 |----|
①━━< |----|
口口口口 |----|
8
口口口口 |①---|
>━━① |----|
①口口口 |----|
口口口口 |----|
9
口口口口 |----|
口口口口 |----|
口口口口 |----|
口口口口 |----|
10
①━━< |①-②-|
口⑥⑤① |③-④-|
⑧④②⑦ |⑤-⑥-|
口③①口 |⑦-⑧-|
11
口口④① |--①-|
口口口口 |--②-|
口口口口 |--③-|
口②口③ |--④-|
12
口口口口 |①-②-|
口⑥⑤口 |③-④-|
⑧④②⑦ |⑤-⑥-|
口③①口 |⑦-⑧-|
13
③口③① |--①-|
④口口⑦ |--②-|
口口口⑤ |③-④⑤|
⑥②口口 |⑥-⑦-|
14
口⑤⑥∨ |①-②-|
⑦②④┃ |③-④-|
口①③┃ |⑤-⑥-|
口口口① |⑦-⑧-|

口口口口
口口口⑧
口口口口
口口口口
15
①口③口 |--①-|
口⑥口口 |--②-|
口口⑤口 |③-④-|
②④口口 |⑤-⑥-|
16
①⑤⑧④ |①-②-|
┃口②口 |③-④-|
┃③口口 |⑤-⑥-|
∧⑦⑥① |⑦-⑧-|
17
①④⑧口 |①-②③|
口①⑨② |-④-⑤|
⑩⑥③口 |⑥-⑦-|
⑤口⑦口 |⑧⑨-⑩|
18
②口⑨① |①-②③|
口口⑧口 |④-⑤-|
口⑥口③ |⑥-⑦-|
④⑦⑨⑤ |⑧-⑨-|
19
①⑥口② |--①-|
口⑤④口 |--②-|
口③⑦口 |③-④⑤|
①⑥口② |⑥-⑦-|
20
口口口口 |①---|
口口口口 |②-③-|
口>━① |--④-|
口口口口 |--⑤-|

口口口口
③━<口
口口口②
②口口口

口口④口
④口口∨
口口口┃
口口口④

⑤口口口
口∨口口
口┃口口
口⑤口⑤
21
口口口① |--①-|
口口∨口 |--②-|
口口┃口 |--③-|
口①①口 |④-⑤-|

口②口口
∨口口口
┃口口口
②口②口

⑤口口口
口③④口
口④③口
③口口⑤
22
口⑤①② |①-②③|
③口⑦① |④-⑤-|
①⑧口④ |⑥-⑦-|
口①⑥口 |⑧-⑨-|

⑨━━<
口口口口
口口口口
口口口⑨
23
①②口④ |--①-|
口⑤口① |②-③-|
①口⑥口 |④-⑤⑥|
④⑦③口 |⑦-⑧-|

口口口口
⑧━<口
口口口口
口口口⑧
24
口口口口 |--①-|
①口口① |②---|
>━━② |--③-|
口③口口 |④-⑤-|

口口口口
口⑤口口
④口口口
口口口口
25
①⑤口口 |①-②-|
口口④口 |③-④-|
口③⑥① |⑤-⑥⑦|
②⑦⑧口 |⑧-⑨-|

⑨口口口
口口口口
口口口口
口口口口
26
口口①① |①-②③|
②⑤⑧① |④-⑤-|
口口⑦③ |⑥-⑦-|
④口口⑥ |⑧-⑨-|

口⑨━<
口口口口
⑨口口口
口口口口
27
口①口口 |--①-|
口口口口 |--②-|
口>━① |③-④-|
口口口口 |⑤-⑥-|

⑤口②②
口③④⑥
⑥④③②
口口口⑤
28
口∨口口 |①---|
口┃口口 |--②-|
口┃口口 |----|
口①口口 |--③-|

口口②②
口口┃┃
口口┃┃
口②∧∧

口口③③
口口口口
口口口口
③口口口
29
⑥①⑧⑧ |①-②③|
口口④口 |④-⑤-|
⑤③⑨口 |⑥-⑦-|
⑧口②⑦ |⑧-⑨-|
30
口口口口 |①-②-|
口①口口 |③-④-|
口>━① |--⑤-|
口口口口 |--⑥-|

口口口口
④━<④
口②口④
口③口口

>━━⑥
⑤口口口
口口口口
⑤口⑤口

口口⑥口
口口口口
口口口口
口口口口
31
口⑩口口 |①②③-|
⑧①口⑥ |④-⑤⑥|
④口②口 |-⑦⑧-|
⑦③⑨⑤ |⑨-⑩-|
32
口口口① |①-②-|
>━①口 |③-④-|
口②口口 |--⑤-|
口①口口 |--⑥⑦|

口口④口
口③④口
④━<口
口口口口

口口口口
口口口口
⑤口口口
⑤>━⑤

⑥━━<
口口口口
口口⑦口
口口口⑥
33
口口口⑥ |①--②|
口②⑤① |--③-|
口口口口 |④-⑤⑥|
口④③口 |⑦-⑧-|

⑦口⑦口
口口口口
口口口口
⑧口口口
34
⑨①口口 |①-②③|
⑤⑥口② |④-⑤-|
⑦口③口 |⑥⑦⑧-|
口⑧⑩④ |⑨-⑩-|
35
口③⑦口 |①-②-|
口⑥②口 |③-④-|
⑤口口① |⑤-⑥-|
④口口⑧ |⑦-⑧-|
36
⑥⑤口① |①②③-|
口口③口 |④-⑤⑥|
口口口口 |-⑦--|
口②④口 |⑧-⑨-|

口口口口
口>━⑦
口口口口
口口口口

口口⑨口
口口口⑧
口口口口
⑧口口口
37
⑤⑦口⑩ |①-②③|
口口②口 |④-⑤-|
③①⑧口 |⑥-⑦⑧|
⑨口④⑥ |⑨-⑩-|
38
口口口口 |①-②-|
口①口口 |③-④-|
口>━① |--⑤-|
口口口口 |--⑥-|

口口口口
④━<④
口②口④
口③口口

>━━⑥
⑤口口口
口口口口
⑤口⑤口

口口⑥口
口口口口
口口口口
口口口口
39
口⑩口口 |①②③-|
⑧①口⑥ |④-⑤⑥|
④口②口 |-⑦⑧-|
⑦③⑨⑤ |⑨-⑩-|
40
口口口① |①-②-|
>━①口 |③-④-|
口②口口 |--⑤-|
口①口口 |--⑥⑦|

口口④口
口③④口
④━<口
口口口口

口口口口
口口口口
⑤口口口
⑤>━⑤

⑥━━<
口口口口
口口⑦口
口口口⑥
41
口口口⑥ |①--②|
口②⑤① |--③-|
口口口口 |④-⑤⑥|
口④③口 |⑦-⑧-|

⑦口⑦口
口口口口
口口口口
⑧口口口
42
⑨①口口 |①-②③|
⑤⑥口② |④-⑤-|
⑦口③口 |⑥⑦⑧-|
口⑧⑩④ |⑨-⑩-|
43
口③⑦口 |①-②-|
口⑥②口 |③-④-|
⑤口口① |⑤-⑥-|
④口口⑧ |⑦-⑧-|
44
口口口口 |①---|
①━━< |--②③|
口口口口 |④--⑤|
口口口口 |--⑥-|

口口口口
口口②口
口口③口
口口口口

口口∨口
④口┃口
口口┃口
口口④口

⑤口⑤口
口口口口
口口口口
口⑥⑤⑥
45
④①口① |①--②|
②口⑤④ |--③-|
⑥③口③ |④-⑤⑥|
②口⑦口 |⑦-⑧-|

口口口⑧
口口口口
口口口口
口口口口
46
⑤口②口 |①-②③|
⑨③口⑧ |④-⑤-|
口⑩④口 |⑥-⑦-|
①⑦口⑥ |⑧-⑨⑩|
47
⑤③口② |①-②-|
口口口⑥ |③-④-|
⑨口⑦口 |⑤-⑥⑦|
①口④⑧ |⑧-⑨-|
48
⑧口①⑤ |①-②③|
②口口⑨ |④-⑤-|
口③⑩⑦ |⑥-⑦-|
④⑥口口 |⑧-⑨⑩|
49
口④③⑨ |①-②-|
⑥口口口 |③-④-|
②⑦口口 |⑤-⑥⑦|
⑧口⑤① |⑧-⑨-|
50
①⑤口口 |①-②③|
⑨⑩⑥② |④-⑤-|
⑪⑦③口 |⑥⑦⑧-|
口口⑧④ |⑨-⑩⑪|
51
②④⑨③ |①-②-|
⑥口口口 |③-④-|
口⑦口口 |⑤-⑥⑦|
⑧①⑤口 |⑧-⑨-|
52
⑤口口口 |①-②③|
⑨⑩⑥② |④-⑤-|
①⑦③口 |⑥⑦⑧-|
口口⑧④ |⑨-⑩⑪|

口口口口
口口口口
⑪口口口
口口口口
53
④②口③ |①-②-|
⑥口口⑨ |③-④-|
口⑦口口 |⑤-⑥⑦|
⑧①口⑤ |⑧-⑨-|
54
⑤⑩②⑥ |①-②③|
⑪③⑦口 |④-⑤-|
口口④⑧ |⑥⑦⑧-|
⑨①①口 |⑨-⑩⑪|
55
口口口⑦ |①-②-|
口⑥⑥③ |③④⑤-|
②①④⑨ |⑥-⑦-|
⑧⑧口⑤ |⑧-⑨-|
56
①①口口 |①-②③|
⑤⑩⑥② |④-⑤-|
⑪⑦③口 |⑥⑦⑧-|
⑨口⑧④ |⑨-⑩⑪|
57
②⑥⑥⑨ |①-②-|
口口口③ |③④⑤-|
⑧⑧④口 |⑥-⑦-|
口①⑦⑤ |⑧-⑨-|
58
⑤口口口 |①-②③|
①①⑥② |④-⑤-|
口⑦③口 |⑥⑦⑧-|
⑨口⑧④ |⑨-⑩⑪|

口口口口
口⑩口口
⑪口口口
口口口口
59
口⑥⑥口 |①-②-|
②⑧口③ |③④⑤-|
⑧口④⑨ |⑥-⑦-|
口①⑦⑤ |⑧-⑨-|
60
①⑤口⑥ |①-②-|
口口④⑦ |③-④-|
口③②⑧ |⑤---⑥⑦⑧⑨|
口口⑩⑨ |⑩---⑪⑫⑬⑭|

⑪口口口
⑫口口口
⑬口口口
⑭口口口
61
口⑤②口 |①-②③|
口④口口 |-④-⑤|
口口③口 |⑥---|
口①口口 |⑦⑧-⑨|

口口口口
口口⑦口
口⑥━<
口口口口

⑨口口口
口口口口
口⑧口口
口口⑧口
62
∨口口∨ |①---|
┃口口┃ |----|
┃口口┃ |----|
①口口① |----|
63
口口口口 |----|
口口口口 |----|
口口口口 |----|
口口口口 |----|
64
口口口口 |----|
口口口口 |----|
口口口口 |----|
口口口口 |----|
65
口口口口 |----|
口口口口 |----|
口口口口 |----|
口口口口 |----|
66
口④口⑦ |①-②-|
口②口⑤ |③-④-|
⑥口①口 |⑤-⑥-|
①口③① |⑦-⑧-|

口口口口
口口口口
口口口口
⑧口口口
67
④⑫⑤⑭ |①②③④|
⑧⑮①⑨ |⑤⑥⑦⑧|
⑩②⑯⑦ |⑨⑩⑪⑫|
⑬⑥⑪③ |⑬⑭⑮⑯|
68
口∨口口 |①---|
口┃口口 |----|
口①口口 |----|
口口口口 |--②③|

口口口②
口口口③
口②口口
口口口口
69
口③⑦口 |①-②-|
⑦⑦⑦⑦ |③-④-|
⑥口⑦① |⑤-⑥-|
②④⑦⑤ |⑦---|
70
②口⑨① |①-②③|
口口⑧口 |④-⑤-|
口⑥口③ |⑥-⑦-|
④⑦⑨⑤ |⑧-⑨-|
71
①⑥口② |--①-|
口⑤④口 |--②-|
口③⑦口 |③-④⑤|
①⑥口② |⑥-⑦-|
72
口口口口 |①---|
口口口口 |②-③-|
口>━① |--④-|
口口口口 |--⑤-|

口口口口
③━<口
口口口②
②口口口

口口④口
④口口∨
口口口┃
口口口④

⑤口口口
口∨口口
口┃口口
口⑤口⑤
73
口口口① |--①-|
口口∨口 |--②-|
口口┃口 |--③-|
口①①口 |④-⑤-|

口②口口
∨口口口
┃口口口
②口②口

⑤口口口
口③④口
口④③口
③口口⑤
74
口⑤①② |①-②③|
③口⑦① |④-⑤-|
①⑧口④ |⑥-⑦-|
口①⑥口 |⑧-⑨-|

⑨━━<
口口口口
口口口口
口口口⑨
75
①②口④ |--①-|
口⑤口① |②-③-|
①口⑥口 |④-⑤⑥|
④⑦③口 |⑦-⑧-|

口口口口
⑧━<口
口口口口
口口口⑧
76
口口口口 |--①-|
①口口① |②---|
>━━② |--③-|
口③口口 |④-⑤-|

口口口口
口⑤口口
④口口口
口口口口
77
①⑤口口 |①-②-|
口口④口 |③-④-|
口③⑥① |⑤-⑥⑦|
②⑦⑧口 |⑧-⑨-|

⑨口口口
口口口口
口口口口
口口口口
78
口口①① |①-②③|
②⑤⑧① |④-⑤-|
口口⑦③ |⑥-⑦-|
④口口⑥ |⑧-⑨-|

口⑨━<
口口口口
⑨口口口
口口口口
79
口①口口 |--①-|
口口口口 |--②-|
口>━① |③-④-|
口口口口 |⑤-⑥-|

⑤口②②
口③④⑥
⑥④③②
口口口⑤
80
口∨口口 |①---|
口┃口口 |--②-|
口┃口口 |----|
口①口口 |--③-|

口口②②
口口┃┃
口口┃┃
口②∧∧

口口③③
口口口口
口口口口
③口口口
81
⑥①⑧⑧ |①-②③|
口口④口 |④-⑤-|
⑤③⑨口 |⑥-⑦-|
⑧口②⑦ |⑧-⑨-|
82
口口口口 |①-②-|
口①口口 |③-④-|
口>━① |--⑤-|
口口口口 |--⑥-|

口口口口
④━<④
口②口④
口③口口

>━━⑥
⑤口口口
口口口口
⑤口⑤口

口口⑥口
口口口口
口口口口
口口口口
83
口⑩口口 |①②③-|
⑧①口⑥ |④-⑤⑥|
④口②口 |-⑦⑧-|
⑦③⑨⑤ |⑨-⑩-|
84
口口口① |①-②-|
>━①口 |③-④-|
口②口口 |--⑤-|
口①口口 |--⑥⑦|

口口④口
口③④口
④━<口
口口口口

口口口口
口口口口
⑤口口口
⑤>━⑤

⑥━━<
口口口口
口口⑦口
口口口⑥
85
口口口⑥ |①--②|
口②⑤① |--③-|
口口口口 |④-⑤⑥|
口④③口 |⑦-⑧-|

⑦口⑦口
口口口口
口口口口
⑧口口口
86
⑨①口口 |①-②③|
⑤⑥口② |④-⑤-|
⑦口③口 |⑥⑦⑧-|
口⑧⑩④ |⑨-⑩-|
87
口③⑦口 |①-②-|
口⑥②口 |③-④-|
⑤口口① |⑤-⑥-|
④口口⑧ |⑦-⑧-|
88
⑥⑤口① |①②③-|
口口③口 |④-⑤⑥|
口口口口 |-⑦--|
口②④口 |⑧-⑨-|

口口口口
口>━⑦
口口口口
口口口口

口口⑨口
口口口⑧
口口口口
⑧口口口
89
⑤⑦口⑩ |①-②③|
口口②口 |④-⑤-|
③①⑧口 |⑥-⑦⑧|
⑨口④⑥ |⑨-⑩-|
90
口口口口 |①-②-|
口①口口 |③-④-|
口>━① |--⑤-|
口口口口 |--⑥-|

口口口口
④━<④
口②口④
口③口口

>━━⑥
⑤口口口
口口口口
⑤口⑤口

口口⑥口
口口口口
口口口口
口口口口
91
口⑩口口 |①②③-|
⑧①口⑥ |④-⑤⑥|
④口②口 |-⑦⑧-|
⑦③⑨⑤ |⑨-⑩-|
92
口口口① |①-②-|
>━①口 |③-④-|
口②口口 |--⑤-|
口①口口 |--⑥⑦|

口口④口
口③④口
④━<口
口口口口

口口口口
口口口口
⑤口口口
⑤>━⑤

⑥━━<
口口口口
口口⑦口
口口口⑥
93
口口口⑥ |①--②|
口②⑤① |--③-|
口口口口 |④-⑤⑥|
口④③口 |⑦-⑧-|

⑦口⑦口
口口口口
口口口口
⑧口口口
94
⑨①口口 |①-②③|
⑤⑥口② |④-⑤-|
⑦口③口 |⑥⑦⑧-|
口⑧⑩④ |⑨-⑩-|
95
口③⑦口 |①-②-|
口⑥②口 |③-④-|
⑤口口① |⑤-⑥-|
④口口⑧ |⑦-⑧-|
96
口口口口 |①---|
①━━< |--②③|
口口口口 |④--⑤|
口口口口 |--⑥-|

口口口口
口口②口
口口③口
口口口口

口口∨口
④口┃口
口口┃口
口口④口

⑤口⑤口
口口口口
口口口口
口⑥⑤⑥
97
④①口① |①--②|
②口⑤④ |--③-|
⑥③口③ |④-⑤⑥|
②口⑦口 |⑦-⑧-|

口口口⑧
口口口口
口口口口
口口口口
98
∨>①口 |①---|
┃①<口 |----|
┃>①口 |----|
①①━< |----|
99
口口口口 |----|
口口口口 |----|
口口口口 |----|
口口口口 |----|
100
口口①口 |①---|
口①口口 |----|
口口①口 |----|
①①口口 |----|
最終更新:2021年05月25日 13:47