Winter Gift ~クリスピーからの贈りもの~
Qrispy Joybox
EXTREME
Level: 9.6
BPM: 178
Notes(
hold): 547(31)
 
1
口口口口 |----|
口口口口 |----|
口口口口 |----|
口口口口 |----|
2
口口
①< |①---|
口口口口 |----|
口口口口 |----|
口口口口 |----|
3
口口口口 |----|
口口口口 |----|
口口口口 |----|
口口口口 |----|
4
口口口口 |①---|
口口口口 |----|
口口口
① |----|
口口口
∧ |----|
5
口口口口 |----|
口口口口 |----|
口口口口 |----|
口口口口 |----|
6
口口口口 |①---|
口口口口 |----|
口口口口 |----|
>①口口 |----|
7
口口口口 |----|
口口口口 |----|
口口口口 |----|
口口口口 |----|
8
∨口口口 |①---|
①口口口 |----|
口口口口 |----|
口口口口 |----|
9
口口
①口 |①---|
①口④口 |----|
口③口
① |----|
口
①②口 |②-③-④-|
10
①口④① |①---|
口⑤口③ |②---|
②口⑥口 |③---|
③口口② |④-⑤-⑥-|
11
口口口口 |①---|
②⑥口③ |②---|
③口⑤① |③---|
口①②④ |④-⑤-⑥-|
12
①口②④ |①---|
③口⑤口 |②---|
口⑥口① |③---|
口②③口 |④-⑤-⑥-|
13
口口口口 |①---|
口②⑥③ |②---|
③⑤口① |③---|
①口④② |④-⑤-⑥-|
14
①口口① |①---|
②⑤口口 |②---|
④口③② |③---|
③口口④ |④---⑤-|
15
②口①① |①---|
口口③② |②---|
口⑤口口 |③---|
③口口④ |④---⑤-|
16
口③①口 |①---|
①④口③ |②---|
③口②① |③---|
口①③口 |④---|
17
口口口
① |①-②-|
口口口
∧ |③-④-|
口口口口 |⑤-⑥-|
口口口口 |⑦-⑧-⑨-|
 
口口口口
口口⑨口
口⑧口口
口口⑦
⑥
18
口①口⑤ |①---|
④口⑧口 |②-③-④-|
口⑦口③ |⑤---|
②口⑥口 |⑥-⑦-⑧-|
19
口①②口 |①-②-③-|
⑩⑦口③ |④-⑤-⑥-|
⑥口④⑨ |⑦---|
⑧⑤口口 |⑧-⑨-⑩-|
20
口③②① |①-②-③-|
口⑤④⑫ |④-⑤-⑥-|
⑥⑩⑪口 |⑦-⑧-⑨-|
口⑦⑧⑨ |⑩-⑪-⑫-|
21
③②①口 |①-②-③-|
口④⑨口 |④-⑤-⑥-|
⑤口口口 |⑦---|
⑧⑥⑦口 |⑧---⑨-|
22
①①口口 |①---|
②⑤口③ |②---|
口口口② |③---|
口③口④ |④---⑤-|
23
口⑤①① |①---|
口口②口 |②---|
③口④口 |③---|
②口③口 |④---⑤-|
24
④口口① |①-②-③-|
⑫⑤②⑨ |④-⑤-⑥-|
⑥⑪⑧③ |⑦-⑧-⑨-|
⑩口口⑦ |⑩-⑪-⑫-|
25
口
①①口 |①---|
口
┃┃口 |----|
口
┃┃口 |----|
口
∧∧口 |②---|
 
口
②②口
口口口口
口口口口
口口口口
26
①口口口 |①---|
┃口口口 |----|
┃口口口 |----|
∧口口口 |----|
27
口口口口 |①---|
口口口① |----|
口口口口 |----|
口口①口 |----|
28
①∨口口 |①---|
口
┃口口 |----|
口
┃口口 |----|
口
①口口 |----|
29
口口口口 |①---|
口口①口 |----|
口口①口 |----|
口口口口 |----|
30
口口
①口 |①---|
口口
┃口 |----|
口口
┃口 |----|
口
①∧口 |----|
31
口口口口 |①---|
口①口口 |----|
口①口口 |----|
口口口口 |----|
32
口口
①∨ |①---|
口口口
┃ |----|
口口口
┃ |----|
口口口
① |----|
33
口①口口 |①---|
口口口口 |----|
①口口口 |----|
口口口口 |----|
34
口口口口 |①---|
口③②① |②---|
口口口口 |③---|
①━<① |④---|
 
口口口口
④口口口
口口口口
④口口口
35
口
>━① |①---|
口口口口 |②---|
①②③口 |③---|
口口口口 |④---|
 
口口口
④
口口口口
口口口④
口口口口
36
口口①口 |①---|
∨口②口 |②---|
┃口③口 |③---|
①口口口 |④---|
 
口口口口
口口口口
口口口口
④口④口
37
口口口
① |①---|
口③口
┃ |②---|
口②口
∧ |③---|
口①口口 |④---|
 
口④口
④
口口口口
口口口口
口口口口
38
④口口⑦ |①-②-|
⑧口③口 |③-④-|
②口⑤① |⑤-⑥-|
口⑥口口 |⑦-⑧-|
39
口⑧③口 |①-②-|
口④口⑦ |③-④-|
口⑥口口 |⑤-⑥-|
②口⑤① |⑦-⑧-|
40
④口口① |①-②-③-|
⑫⑤②⑨ |④-⑤-⑥-|
⑥⑪⑧③ |⑦-⑧-⑨-|
⑩口口⑦ |⑩-⑪-⑫-|
41
口
①①口 |①---|
口
┃┃口 |----|
口
┃┃口 |②---|
口
∧∧口 |③-④-⑤-|
 
口
②②口
口口⑤口
口④口口
口口③口
42
①口口① |①---|
口③口② |②---|
⑦⑥⑤④ |③---|
②口口③ |④⑤⑥⑦|
43
口口④① |①---|
②⑤③口 |②---|
口口⑥口 |③---|
口③②口 |④-⑤-⑥-|
44
口②口③ |①---|
④⑤⑥⑦ |②---|
③口口② |③---|
①口口① |④⑤⑥⑦|
45
口②③④ |①---|
④口口口 |②---|
口口口④ |③---|
④③②① |④---|
46
口②口口 |①---|
口口口③ |②---|
口①①口 |③---|
口③口② |④⑤⑥⑦|
 
口口口口
口口口口
⑦⑥⑤④
口口口口
47
口口口① |①---|
口②口③ |②---|
口④口口 |③---|
③口②④ |④---|
48
口③①口 |①---|
①口口③ |②---|
③④②① |③---|
口①③口 |④---|
49
①口口① |①---|
②①①口 |②-③-|
┃口口口 |④-⑤-|
∧口口口 |⑥-⑦-⑧-|
 
口口口口
口⑧口口
口口⑦
⑤
口⑥口口
50
①口口① |①---|
②口③口 |②---|
④⑤⑥⑦ |③---|
③口口② |④⑤⑥⑦|
51
①④口口 |①---|
口③⑤② |②---|
口⑥口口 |③---|
口②③口 |④-⑤-⑥-|
52
③口②口 |①---|
⑦⑥⑤④ |②---|
②口口③ |③---|
①口口① |④⑤⑥⑦|
53
④③②口 |①---|
口口口④ |②---|
④口口口 |③---|
①②③④ |④---|
54
口口②④ |①---|
③⑤口口 |②---|
口①①⑥ |③---|
②口③口 |④-⑤-⑥-|
55
口口口④ |①---|
③口口② |②---|
②口口口 |③---|
④①③口 |④---|
56
口④①口 |①-②-③-|
⑤⑩⑦② |④-⑤-⑥-|
⑪⑥③⑧ |⑦-⑧-⑨-|
口⑫⑨口 |⑩-⑪-⑫-|
57
①口口
① |①---|
┃口口
┃ |----|
┃口口
┃ |②---|
∧口口
∧ |③-④-⑤-|
 
②口口
②
口口口口
口口口⑤
④口口③
58
⑧④②⑦ |①---②-|
⑥①①⑨ |③---④-|
口③⑤口 |⑤---⑥-|
口口口口 |⑦-⑧-⑨-|
59
⑦⑧⑨⑥ |①---②-|
口⑤③口 |③---④-|
④口口② |⑤---⑥-|
口①①口 |⑦-⑧-⑨-|
60
口口口口 |①---②-|
③口口⑤ |③---④-|
口①①口 |⑤---⑥-|
口④②口 |⑦-⑧-⑨-|
 
口口口口
口口口口
口⑨⑧⑦
⑥口口口
61
①③⑤① |①---②-|
⑦口⑥⑦ |③---④-|
⑦口口⑦ |⑤---⑥-|
口④②口 |⑦---|
62
⑤③口④ |①---|
口③③⑥ |②---|
口②①口 |③---|
②②①① |④-⑤-⑥-|
63
口口⑦⑥ |①---②-|
④⑤口口 |③---④-|
①口③② |⑤---⑥-|
口口①口 |⑦---⑧-|
口口口口
口口口口
⑧口口口
口口口口
64
①口口③ |①---|
口③①口 |②---|
口①③口 |③---|
③④②① |④---|
65
口
②口口 |①---|
①
┃口① |②-③-|
①
┃口① |④-⑤-|
口
∧口口 |⑥-⑦-⑧-|
 
口口口口
口口口口
⑧口口口
⑥口
⑤⑦
66
口②④口 |①---②-|
口①①口 |③---④-|
口⑤③口 |⑤---⑥-|
口口口口 |⑦⑧⑨⑩|
 
口口口口
⑩⑨⑧⑦
口口口口
口口口⑥
67
③口口⑤ |①---②-|
口⑨口口 |③---④-|
②⑥⑧④ |⑤---⑥-|
口①①⑦ |⑦-⑧-⑨-|
68
口口①口 |①---②-|
①口④⑤ |③---④-|
⑩⑨⑧⑦ |⑤---⑥-|
③②⑥口 |⑦⑧⑨⑩|
69
②①①④ |①---②-|
⑦③⑤⑦ |③---④-|
⑦⑥口⑦ |⑤---⑥-|
口口口口 |⑦---|
70
口②①③ |①---|
④口口⑤ |②---|
⑥③③口 |③---|
①①②② |④-⑤-⑥-|
71
口⑧⑤口 |①---②-|
⑥②口⑦ |③---④-|
口④口① |⑤---⑥-|
口①③口 |⑦---⑧-|
72
④口口① |①-②-③-|
⑫⑤②⑨ |④-⑤-⑥-|
⑥⑪⑧③ |⑦-⑧-⑨-|
⑩口口⑦ |⑩-⑪-⑫-|
73
口
①①口 |①---|
口
┃┃口 |----|
口
┃┃口 |②---|
口
∧∧口 |----|
 
口
②②口
口口口口
口口口口
口口口口
74
口口口口 |①---|
口口口口 |----|
口口口口 |----|
>①口口 |----|
75
口口口口 |----|
口口口口 |----|
口口口口 |----|
口口口口 |----|
76
∨口口口 |①---|
①口口口 |----|
口口口口 |----|
口口口口 |----|
77
口口口口 |----|
口口口口 |----|
口口口口 |----|
口口口口 |----|
78
口口
①< |①---|
口口口口 |----|
口口口口 |----|
口口口口 |----|
79
口口口口 |----|
口口口口 |----|
口口口口 |----|
口口口口 |----|
80
口口口口 |①---|
口口口口 |----|
口口口
① |----|
口口口
∧ |----|
81
口口口口 |----|
口口口口 |----|
口口口口 |----|
口口口口 |----|
82
口口
①口 |①---|
①口口口 |----|
口口口
① |----|
口
①口口 |----|
 
最終更新:2021年05月25日 10:42