アットウィキロゴ
Agnus Dei
あさき

EXTREME

Level: 9.6
BPM: 168
Notes(hold): 609(60)

1
口口口口 |----|
口口口口 |----|
口口口口 |----|
口口口口 |----|
2
口口口口 |----|
口口口口 |----|
口口口口 |----|
口口口口 |----|
3
口口口口 |----|
口口口口 |----|
口口口口 |----|
口口口口 |----|
4
口口口口 |----|
口口口口 |----|
口口口口 |----|
口口口口 |----|
5
∨口口∨ |----|
口口口口 |----|
口口口口 |(70)-------①|
①口口① |--②-----|

口口口口
口口口口
口口口口
②口口②
6
①口口① |(168)①---|
口①①口 |----|
口口口口 |②-③-|
口口口口 |④-⑤-|

口口口口
口⑤④口
口②③口
口口口口
7
∨口口口 |①---|
口口口口 |----|
①口口口 |②---|
口口口口 |----|

口口口口
口口口②
②口口口
口>口②
8
口口口口 |①---|
①口<口 |--②-|
口口口口 |----|
①口口① |③---|

口口口口
②口③口
口②口②
口口③口
9
口∨口口 |①---|
口①口口 |----|
口口口口 |②---|
①口口口 |----|

口口∨口
口②②口
口口口口
口口口②
10
①<口口 |①---|
口口①口 |--②-|
口口①口 |③---|
口口口口 |--④-|

②口口③
口∨口口
口③口口
口口口口

口口口口
口口∨口
口④口口
口口④④
11
口口口口 |----|
口∨口口 |①---|
口口口口 |--②-|
①①①口 |----|

口口口口
口口口②
口口>②
口②口口
12
口口口口 |①---|
①<口口 |----|
①口口① |②---|
口口口口 |③-④-|

口②②口
②口④口
口③口口
口口口口
13
口口口① |①---|
口口口口 |----|
口口口口 |②---|
口②②∧ |③-④-|

口口口③
口口④口
口③口口
口口口口
14
口②口⑤ |①-②-|
①④⑥⑤ |③-④-|
①口③⑦ |⑤-⑥-|
口口⑧⑦ |⑦-⑧-|
15
①口①口 |①-②-|
②口⑦口 |③-④-|
③⑧⑥口 |⑤-⑥-|
④⑤口⑤ |⑦-⑧-|
16
口口④口 |①-②-|
口②口③ |③-④-|
口口口口 |⑤-⑥-|
口口①口 |⑦-⑧-|

⑤口口口
口口⑥口
⑦口口口
口口⑧口
17
④②口③ |①-②-|
④②口③ |③-④-|
口①口② |⑤-⑥-|
口①口② |⑦-⑧-|

口⑧⑤口
口口⑤口
⑥口⑦口
口口口口
18
口口口口 |①-②-|
口⑧口① |③-④-|
口②⑦③ |⑤-⑥-|
口④⑥⑤ |⑦-⑧-|
19
①<口口 |①---|
口口口口 |②-③-|
口⑦④③ |④-⑤-|
口⑥⑤② |⑥-⑦-|
20
①②口口 |①---|
∨③口口 |----|
①口口口 |②-③-|
口口口口 |④---|

口口口口
口口∨口
④④④口
口口口口
21
①口口口 |----|
③②口口 |①-②-|
⑤④①口 |③-④-|
口⑥口口 |⑤-⑥-|
22
口⑧口口 |①-②-|
⑦⑤③① |③-④-|
⑥④②口 |⑤-⑥-|
口口口口 |⑦-⑧-|
23
口口口口 |①---|
④④①① |②---|
口口口口 |③---|
③③②② |④---|
24
口口口口 |①-②-|
口口②口 |③---|
口③③① |④-⑤-|
口口口口 |⑥-⑦-|

口口⑤④
口口⑦⑥
口口口口
口口口口
25
口③口口 |①-②-|
口③口口 |③---|
口口②① |--④-|
口∧口口 |⑤⑥⑦⑧|

口口口口
口④⑥⑤
⑦⑧口口
口口口口
26
⑦⑧②① |①②③④|
⑪⑫⑭⑬ |⑤⑥⑦⑧|
⑮⑯⑩⑨ |⑨⑩⑪⑫|
③④⑥⑤ |⑬⑭⑮⑯|
27
⑦⑧②① |①②③④|
口口口口 |⑤⑥⑦⑧|
口口口口 |⑨⑩⑪⑫|
③④⑥⑤ |⑬---|

口口口⑬
⑪⑫口∧
口口⑩⑨
口口口口
28
口①②① |----|
②①口 |①---|
①口口口 |②---|
口口口口 |----|
29
口口口口 |①---|
口①∨① |②---|
口口①口 |③-④-|
口口口口 |⑤-⑥-|

口②<口
②口口口
口口②口
口口口口

口③口③
口口④口
口⑤口口
口口⑥口
30
③⑤③口 |①-②-|
③口⑥② |③---|
④口④① |④---|
④口口口 |⑤-⑥-|
31
口口口口 |①-②-|
口口口④ |③---|
口③口① |④-⑤-|
口∧②口 |--⑥-|

⑥口口口
口⑤⑤口
口⑤⑤口
口口口口
32
口①②③ |①-②-|
⑦口⑥⑦ |③-④-|
口⑥⑤口 |⑤-⑥-|
④口口口 |--⑦-|
33
⑥①②⑦ |--①-|
⑧③④⑨ |--②-|
口⑤口口 |③④⑤-|
口②①口 |⑥⑦⑧⑨|
34
口⑤口口 |①②③④|
口口口口 |⑤---|
①口⑤② |⑥-⑦-|
③口口④ |--⑧-|

口口⑥口
口口口口
口⑥口⑧
口⑦⑦口
35
口口口口 |①-②-|
口口②口 |③---|
口口①口 |④---|
口口口口 |⑤-⑥-|

口口口口
口>口③
口口⑤口
④④口口

口口口口
⑥口口⑥
口口口口
口口口口
36
口①口 |①-②-|
口①口口 |③---|
③②口口 |④-⑤-|
口⑤④口 |⑥---|

口口⑥口
∨口口口
口口口口
⑥口口口
37
口③③ |①---|
口⑤②口 |②---|
口④口① |③---|
③口口口 |④-⑤-|
38
③口①③ |①-②-|
∧口②④ |③-④-|
口口①口 |⑤-⑥-|
口口口口 |⑦-⑧-|

⑦口口口
口口口口
口口⑧⑤
口口⑦⑥
39
口口口口 |①-②-|
口②①口 |③-④-|
∨③口口 |⑤-⑥-|
①④口口 |⑦---|

⑦口口口
∧口口口
口口口⑦
⑤口⑤⑥
40
②口口② |①---|
口①口口 |②---|
③③< |③---|
口口口口 |----|
41
②口口⑤ |①---|
⑥①①口 |②-③-|
口①①口 |④-⑤-|
口④③⑦ |⑥-⑦-|
42
口③口口 |①-②-|
口⑤口② |③-④-|
口⑦④口 |⑤-⑥-|
①⑦⑥口 |⑦---|
43
口口口⑤ |①-②-|
②口口③ |③-④-|
④⑥口① |⑤---|
口口口口 |--⑥-|
44
⑥口⑤口 |①-②-|
④⑧③⑦ |③-④-|
口口②口 |⑤-⑥-|
口①口口 |⑦-⑧-|
45
⑧口口口 |①-②-|
⑥口⑤⑦ |③-④-|
口②⑤① |⑤-⑥-|
口④口③ |⑦-⑧-|
46
口口口② |①-②-|
④①③⑥ |③-④-|
⑧⑤⑦口 |⑤-⑥-|
口口口口 |⑦-⑧-|
47
口口口口 |①-②-|
口口口口 |③---|
口口口口 |④---|
口①口口 |⑤---|

口口口口
口口口口
口口口②
口③口

口口口口
⑤口<口
口④口口
口口④口
48
口①口③ |①-②-|
①口②口 |③---|
口口口口 |④---|
口口口口 |----|

④口④口
口④口④
口口∧口
口∧口口
49
口口①口 |----|
口①口口 |①---|
口口①口 |----|
口①口口 |----|
50
②>口① |----|
口③口口 |--①-|
口口口① |--②-|
口口口口 |③-④-|

口口口④
口口口口
口口④口
口口口口
51
口口口口 |--①-|
①口口口 |--②-|
口口口口 |--③-|
①口<口 |--④-|

口②②口
口口口∨
口③③口
③④口④
52
口口③口 |①-②-|
口②④口 |③-④-|
①⑤口口 |⑤-⑥-|
口口口④ |--⑦-|

口口口口
口口口口
∨口口口
⑥⑥口口

口口口口
口口口∨
口口⑦⑦
⑦口口口
53
∨口口口 |--①-|
①①口口 |--②-|
口口口① |--③-|
口口口口 |④-⑤-|

口③②②
②口④口
口⑤口口
口口口口
54
②口②< |①-②-|
③口③ |A-③-|
④口④< |B-④-|
⑤①⑤ |C-⑤-|

口口A口
口B口口
口口C口
口口口口
55
③∨④ |A-①-|
③口②∨ |B-②-|
口②口① |C-③-|
口A①口 |D-④-|

口D口口
口口C口
口口口B
口口口口
56
⑩口⑩口 |①-②③|
⑨①口⑥ |④⑤⑥-|
⑦③②⑧ |⑦-⑧-|
口⑤④⑥ |⑨-⑩-|
57
口④口口 |①-②-|
口②⑤② |③-④-|
⑧①⑥口 |⑤-⑥-|
口⑦③口 |⑦-⑧-|
58
口②口口 |①-②-|
①口③口 |③-④-|
口口④口 |⑤-⑥-|
口口口口 |⑦-⑧-|

⑥口口口
⑦⑧口⑧
⑧⑥口⑥
口⑤口口
59
口②口② |①-②-|
口口③口 |③-④-|
口口④口 |--⑤-|
①④口口 |--⑥-|

⑥口口⑥
口口口口
口⑤口口
口口⑤口
60
口口③口 |--①-|
①口①口 |②-③-|
口口口口 |④-⑤-|
口②口口 |⑥-⑦-|

口口口口
口④⑦口
口⑤口⑦
口口⑥口
61
口②②口 |①-②-|
⑧③⑧① |③-④-|
⑥④⑥⑦ |⑤-⑥-|
口④⑤口 |⑦-⑧-|
62
②口②③ |①-②-|
口口口① |③-④-|
口口口口 |⑤-⑥-|
口④口④ |⑦-⑧-|

⑧口⑧口
⑦口口口
⑤口⑥⑥
口口口口
63
口④口④ |①-②-|
口②⑤② |③-④-|
⑧①⑥口 |⑤-⑥-|
口⑦③⑧ |⑦-⑧-|
64
口②④② |①-②-|
①口③口 |③-④-|
口口④口 |⑤-⑥-|
口口口口 |⑦-⑧-|

⑥口口口
⑦⑧口⑧
⑧⑥口⑥
口⑤口口
65
口②口② |①-②-|
口口③口 |③-④-|
口口④口 |--⑤-|
①④口④ |⑥-⑦-|

⑥口口⑦
口口口口
⑥⑤口⑦
口口⑤口
66
口③③口 |--①-|
①口①口 |②-③-|
口口口口 |④-⑤-|
口②口口 |⑥-⑦-|

口口口口
口④⑦口
口⑤口⑦
口口⑥口
67
口②②口 |①-②-|
⑧③⑧① |③-④-|
⑥④⑥⑦ |⑤-⑥-|
口④⑤口 |⑦-⑧-|
68
②④②③ |①-②-|
口④口① |③-④-|
⑧口口⑦ |⑤-⑥-|
⑥⑧口⑤ |⑦-⑧-|
69
口口口③ |①-②-|
②口③① |③---|
口②①口 |----|
口口口口 |----|
70
∨∨∨口 |----|
①①①口 |--①-|
口口口口 |----|
口口口口 |----|
71
口口口口 |----|
口口口口 |----|
口∨∨∨ |----|
口①①① |---①|
72
口口口口 |----|
口口口口 |----|
口口口口 |----|
口口口口 |----|
73
口口口口 |----|
口口口口 |----|
口口口口 |----|
口口口口 |----|
74
口口口口 |①---|
①①①口 |----|
口口口口 |-②--|
口①①① |----|

口口>②
口口>②
口②②②
口∧∧∧
75
口口口① |----|
口口口① |----|
口①①① |-①--|
口口口口 |----|
最終更新:2023年01月17日 12:17