アットウィキロゴ
zeeros
onoken

EXTREME

Level: 9.8
BPM: 146-187
Notes: 735

1
口口口口 |(186)----|
口口口口 |----|
口口口口 |①---|
口①口口
2
口口口口 |①---|
口口口② |②---|
口③口口 |③---|
口口口①
3
口①口口 |①---|
口口口口 |②---|
③口②口 |③---|
口口口口
4
口口口① |①---|
③④口口 |②-③-|
口口口② |④---|
口口口口
5
口口口口 |①---|
口口②口 |----|
口口口口 |②---|
口口口①
6
口口口口 |①---|
口口口④ |②-③-|
口②③口 |④---|
①口口口
7
口口口口 |①---|
口口③口 |②---|
①口口口 |③---|
口口②口
8
口口口口 |①---|
③口口口 |②---|
口口②口 |③---|
①口口口
9
口口①口 |①---|
口口口口 |②---|
口口口② |③---|
口③口口
10
口口口口 |①---|
口口口② |②---|
口③口口 |③---|
口口口①
11
口①口口 |①---|
口口口口 |②---|
③口②口 |③---|
口口口口
12
口口口① |①---|
③④口口 |②-③-|
口口口② |④---|
口口口口
13
口口口口 |①---|
口口口口 |②---|
口口口③ |③---|
口②口①
14
口口口口 |①---|
口口口④ |②-③-|
口②③口 |④---|
①口口口
15
口口口口 |①---|
口口③口 |②---|
①口口口 |③---|
口口②口
16
口口口口 |①---|
③口口口 |②---|
口口②口 |③---|
①口口口
17
②口③口 |①---|
口口①口 |②---|
口口口口 |③---|
口口口口
18
口口口③ |①---|
①口口② |--②-|
口①口口 |③---|
口口口口
19
①口口口 |(166)①---|
口①口口 |②---|
③口口② |(146)③---|
口口口口
20
②口口① |(187)①---|
⑤③⑨口 |②③④⑤|
口⑥④⑧ |⑥⑦⑧⑨|
口口⑦①
21
口①③口 |①---|
口口口口 |②---|
口口口口 |③---|
口②口口
22
口口⑦① |①---|
口⑥④⑧ |②③④⑤|
⑤③⑨口 |⑥⑦⑧⑨|
②口口①
23
口口口口 |①②--|
②口④口 |-③--|
口口口口 |-④--|
③①口口
24
②口口① |①---|
⑤③⑨口 |②③④⑤|
口⑥④⑧ |⑥⑦⑧⑨|
口口⑦①
25
口①③口 |①---|
口口口口 |②---|
口口口口 |③---|
口②口口
26
①②口③ |①---|
②①③口 |②---|
口口口口 |③---|
口口口口
27
口口①口 |①---|
口口口① |②---|
③②口口 |③---|
②③口口
28
②口口① |①---|
⑤③⑨口 |②③④⑤|
口⑥④⑧ |⑥⑦⑧⑨|
口口⑦①
29
口①③口 |①---|
口口口口 |②---|
口口口口 |③---|
口②口口
30
口口⑦① |①---|
口⑥④⑧ |②③④⑤|
⑤③⑨口 |⑥⑦⑧⑨|
②口口①
31
口口口口 |①②--|
②口④口 |-③--|
口口口口 |-④--|
③①口口
32
②口口① |①---|
⑤③⑨口 |②③④⑤|
口⑥④⑧ |⑥⑦⑧⑨|
口口⑦①
33
口①③口 |①---|
口口口口 |②---|
口口口口 |③---|
口②口口
34
口⑤口④ |①-②-|
口③口⑥ |③-④-|
①口②口 |⑤-⑥-|
口口口口
35
口口口口 |①-②-|
口口口口 |③-④-|
口①口② |----|
口③口④
36
口⑤口④ |①-②-|
口③口⑥ |③-④-|
①口②口 |⑤-⑥-|
口口口口
37
口口④口 |①-②-|
③口②口 |③-④-|
口①口口 |----|
口口口口
38
①口口② |①---|
④⑤⑥⑦ |②-③-|
①口口③ |④⑤⑥⑦|
口口口口
39
口①②口 |①---|
口口口口 |②-③-|
口①③口 |④⑤⑥⑦|
④⑤⑥⑦
40
①③口口 |①---|
口口口④ |②-③-|
①③口② |--④-|
口口口口
41
口口①② |①---|
口③口口 |②-③-|
口口①口 |----|
口③口口
42
④口⑤口 |①-②-|
⑥口③口 |③-④-|
口②口① |⑤-⑥-|
口口口口
43
口口口口 |①-②-|
口④口③ |③-④-|
②口①口 |----|
口口口口
44
④口⑤口 |①-②-|
⑥口③口 |③-④-|
口②口① |⑤-⑥-|
口口口口
45
口④口口 |①-②-|
口②口③ |③-④-|
口口①口 |----|
口口口口
46
②口口① |①---|
⑦⑥⑤④ |②-③-|
③口口① |④⑤⑥⑦|
口口口口
47
口②①口 |①---|
口口口口 |②-③-|
口③①口 |④⑤⑥⑦|
④⑤⑥⑦
48
口口③① |①---|
④口口口 |②-③-|
②口③① |--④-|
口口口口
49
口①口口 |①-②-|
口②口③ |③-④-|
口①口⑤ |--⑤-|
口④口口
50
口口口口 |①---|
口③②口 |②-③-|
口口①口 |----|
口口口口
51
口口口① |①---|
口口口口 |--②-|
②口口口 |----|
口口口口
52
口口口口 |①---|
口④⑤口 |②-③-|
口②③口 |④-⑤-|
口口口①
53
①口口口 |①---|
口口口口 |--②-|
③口口② |--③-|
口口口口
54
口④⑤口 |①---|
口②③口 |②-③-|
口①口口 |④-⑤-|
口口口口
55
①口口口 |①---|
口口⑤口 |②③④-|
①④③② |⑤-⑥-|
口⑥口口
56
③口口口 |①---|
口②口① |②---|
口③口口 |③---|
②口①口
57
口口①② |①---|
口口③口 |②---|
口口②① |③---|
口③口口
58
口口口口 |①-②-|
①③口⑤ |③-④-|
②①④口 |⑤---|
①口口口
59
口口③② |①-②-|
口④①口 |③-④-|
⑤口口① |⑤---|
口口①口
60
②①③口 |①---|
①④口⑤ |②-③-|
口①口口 |④-⑤-|
①口口口
61
口③口① |①---|
③口①口 |②---|
口③口① |③---|
②口①②
62
①口①口 |①---|
口①②口 |----|
①口口② |②---|
口口②口
63
②口②口 |①---|
口②口① |----|
口口①口 |②---|
口口口①
64
口①口② |①---|
①口①③ |--②-|
口口②口 |③---|
口口③口
65
口口口口 |①---|
③口口口 |②---|
口①③② |③---|
③②口①
66
③口②口 |①---|
口③①② |--②-|
①口口口 |③---|
口口①口
67
口③口③ |①---|
③口③口 |②---|
口②②① |③---|
②①口①
68
②口①口 |①---|
口①口① |----|
①②口② |②---|
口口②口
69
口口②口 |①---|
口口口② |----|
口口②口 |②---|
①①口①
70
口①口① |①---|
口②①口 |----|
②口口① |②---|
口②口口
71
口②口② |①---|
①口②口 |----|
口①口口 |②---|
①口口口
72
②口①口 |①---|
③①口① |--②-|
口②口口 |③---|
口③口口
73
口口口口 |①---|
口口口③ |②---|
②③①口 |③---|
①口②③
74
口②口③ |①---|
②①③口 |--②-|
口口口① |③---|
口①口口
75
③口③口 |①---|
口③口③ |②---|
①②②口 |③---|
①口①②
76
口①口① |①---|
①口①口 |----|
②口②口 |②---|
口②口②
77
口口口口 |①---|
口口口口 |----|
口①口① |----|
①口①口
78
口口④⑤ |①-②-|
口口口② |③-④-|
口口③⑥ |⑤-⑥-|
口口口①
79
⑤⑥口口 |①-②-|
④口①口 |③-④-|
③口口口 |⑤-⑥-|
②口口口
80
口口④⑤ |①-②-|
口口口② |③-④-|
口口③⑥ |⑤-⑥-|
口口口①
81
①②口口 |①-②-|
④③①口 |③-④-|
⑤⑥口口 |⑤-⑥-|
口口口口
82
口口④⑤ |①-②-|
口口口② |③-④-|
口口③⑥ |⑤-⑥-|
口①口①
83
⑤⑥口口 |①-②-|
④口①口 |③-④-|
③口口口 |⑤-⑥-|
②口口口
84
口口④⑤ |①-②-|
口口口② |③-④-|
口口③⑥ |⑤-⑥-|
口口口①
85
①②口口 |①-②-|
④③①口 |③-④-|
⑤⑥口口 |⑤-⑥-|
口口口口
86
口口②② |①---|
口口口口 |----|
口口口① |--②-|
口①口口
87
口口口口 |①---|
口口口口 |----|
口口口口 |----|
口口①①
88
口口②口 |①---|
②③①口 |②---|
口口口③ |③---|
口①口口
89
口口口口 |①---|
口口口口 |----|
口口①口 |----|
①口口口
90
口口口口 |①---|
①口②② |----|
口口③③ |②-③-|
口①口口
91
②口①① |①---|
口口口口 |--②-|
口②口口 |----|
口口口口
92
口①口口 |①---|
口口口口 |②-③-|
①④口⑤ |④-⑤-|
②口③口
93
⑤③口④ |①-②-|
①⑥②口 |③-④-|
口口⑦口 |⑤⑥⑦⑧|
口口口⑧
94
口口口口 |①-②-|
⑥口⑤口 |③-④-|
口④口③ |⑤-⑥-|
②口①口
95
口②口① |①-②-|
口④口③ |③-④-|
口⑥口⑤ |⑤-⑥-|
口口口口
96
口③口口 |(166)①---|
口④②口 |②-③-|
口口⑤口 |(146)④-⑤-|
口口口①
97
口口①口 |①---|
口口口① |----|
口口口口 |(156)②---|
口②口口
98
口口口口 |(186)①---|
口④③② |②③④-|
口⑤⑥⑦ |⑤⑥⑦-|
口口口①
99
②口①口 |①---|
③⑤口口 |②③④-|
④⑥口口 |⑤⑥⑦-|
口⑦口口
100
口②口口 |①---|
口口③① |--②-|
口口口口 |③---|
口口口口
101
口口口口 |①②③-|
⑦口口口 |④⑤⑥-|
①②③口 |⑦---|
⑥⑤④口
102
口口③口 |①---|
口口口② |--②-|
口口口口 |③---|
口口口①
103
⑦⑧⑨口 |①②③-|
①②③口 |④⑤⑥-|
⑥⑤④口 |⑦⑧⑨-|
口口口口
104
口口口口 |①---|
口口口① |----|
口口口① |----|
口①口口
105
口口①② |①---|
①口口口 |----|
①口口口 |②---|
口口口②
106
口①③口 |①---|
②①口② |②---|
口①口口 |③---|
口①③口
107
①⑥口⑥ |①---|
口口⑥口 |②③④⑤|
②③④⑤ |⑥---|
①口口口
108
④口①口 |①---|
③①口① |②-③-|
口④口口 |④---|
②③口②
109
口①②① |①---|
口②①② |②---|
③口③口 |③---|
③口口口
110
②③口③ |①---|
③②口② |--②-|
口①口① |③---|
口①口①
111
③口③口 |①---|
口③口口 |②---|
①②②口 |③---|
①口①②
112
口①口口 |①---|
①口①口 |----|
⑤口口② |②③④⑤|
口④③口
113
①③①口 |①---|
口①口② |②---|
口③口口 |③---|
口口口②
114
③口③② |①---|
②口②③ |--②-|
①口①口 |③---|
①口①口
115
口③口③ |①---|
口口③口 |②---|
口②②① |③---|
②①口①
116
②口①口 |①---|
⑤③⑨① |②③④⑤|
①⑥④⑧ |⑥⑦⑧⑨|
口口⑦口
117
口①③口 |①---|
口口口口 |②---|
口口口口 |③---|
口②口口
118
口口口③ |①---|
口③口② |②---|
⑤②①① |③-④⑤|
④口①①
119
⑦④②口 |①---|
①⑧⑤③ |②③④⑤|
口口⑨⑥ |⑥⑦⑧⑨|
口口口口
120
口⑤口④ |①②--|
③口⑤口 |③-④-|
②②口口 |⑤---|
②②口①
121
①口①口 |①---|
口口口口 |②③④⑤|
⑨⑧④⑤ |⑥⑦⑧⑨|
②③⑦⑥
122
②②口口 |①---|
③①①口 |②---|
口口口③ |③--④|
④④口口
123
口口①① |①---|
口②②口 |②---|
口②②口 |----|
口口口口
最終更新:2021年01月12日 04:02