アットウィキロゴ
Catapulted Arch
BEMANI Sound Team "person09"

BASIC

Level: 4
BPM: 184
Notes: 266

1
口口口口 |----|
口口口口 |----|
口口口口 |----|
口口口口 |----|
2
口口口口 |①---|
③①②口 |--②-|
③①②口 |----|
口口口口 |③---|
3
口口口口 |--①-|
口口口① |----|
口口口① |----|
口口口口 |----|
4
口口口口 |①---|
②口③① |--②-|
②口③① |----|
口口口口 |③---|
5
口口口口 |--①-|
口①口口 |----|
口①口口 |----|
口口口口 |----|
6
口③③口 |①---|
口①①口 |--②-|
口②②口 |----|
口口口口 |③---|
7
口口口口 |--①-|
口口口口 |----|
口口口口 |----|
口①①口 |----|
8
口②②口 |①---|
口口口口 |--②-|
口③③口 |----|
口①①口 |③---|
9
②口口② |--①-|
②①①② |----|
口口口口 |②---|
口口口口 |----|
10
口③④口 |①---|
口②口口 |②---|
口①口口 |③---|
口口口口 |④---|
11
口口口口 |①---|
口口①口 |②---|
口口②口 |----|
口口口口 |----|
12
口③④口 |①---|
口口②口 |②---|
口①口口 |③---|
口口口口 |④---|
13
口口口口 |①---|
口①口口 |②---|
口口②口 |----|
口口口口 |----|
14
口③④口 |①---|
②口口口 |②---|
口①口口 |③---|
口口口口 |④---|
15
口口口口 |①---|
口口口① |②---|
口口②口 |----|
口口口口 |----|
16
②口口② |①---|
口①①口 |--②-|
口③③口 |----|
口口口口 |③---|
17
②②②② |--①-|
①口口① |----|
口口口口 |②---|
口口口口 |----|
18
口口口口 |----|
口口口口 |----|
口口口口 |----|
口口口口 |----|
19
口口口口 |①---|
口②口口 |----|
①口口口 |②---|
口口口口 |----|
20
口口口口 |①---|
口口口② |----|
口口①口 |②---|
口口口口 |----|
21
口口口口 |①---|
口口口口 |----|
口①①口 |----|
口口口口 |----|
22
口口口口 |①---|
①口口② |----|
口口口口 |②---|
口口口口 |----|
23
口口口口 |①---|
口口②口 |----|
口口口① |②---|
口口口口 |----|
24
口口口口 |①---|
②口口口 |----|
口①口口 |②---|
口口口口 |----|
25
口口口口 |①---|
口口口口 |----|
口①①口 |----|
口口口口 |----|
26
口口口口 |①---|
②口口① |----|
口口口口 |②---|
口口口口 |----|
27
口①②口 |①---|
口口口口 |----|
口口口口 |②---|
口口口口 |----|
28
口口口口 |①---|
口②①口 |----|
口口口口 |②---|
口口口口 |----|
29
口口口口 |①---|
口口口口 |----|
口①②口 |②---|
口口口口 |----|
30
口口口口 |①---|
口口口口 |----|
口口口口 |②---|
口②①口 |----|
31
口口口口 |①---|
口口口② |----|
口口口① |②---|
口口口口 |----|
32
口口口口 |①---|
口口①口 |----|
口口②口 |②---|
口口口口 |----|
33
口口口口 |①---|
口②口口 |----|
口①口口 |②---|
口口口口 |----|
34
口口口口 |①---|
①口口口 |----|
②口口口 |②---|
口口口口 |----|
35
口②①口 |①---|
口口口口 |----|
口口口口 |②---|
口口口口 |----|
36
口口口口 |①---|
口①②口 |----|
口口口口 |②---|
口口口口 |----|
37
口口口口 |①---|
口口口口 |----|
口②①口 |②---|
口口口口 |----|
38
口口口口 |①---|
口口口口 |----|
口口口口 |②---|
口①②口 |----|
39
口口口口 |①---|
②口口口 |----|
①口口口 |②---|
口口口口 |----|
40
口口口口 |①---|
口①口口 |----|
口②口口 |②---|
口口口口 |----|
41
口口口口 |①---|
口①①口 |----|
口②②口 |----|
口口口口 |②---|
42
口口口口 |----|
口口口口 |----|
口口口口 |①---|
口①①口 |----|
43
口口口口 |①---|
①②口口 |--②-|
口③口口 |----|
口口口口 |③---|
44
口口口口 |----|
口口口① |----|
口口②口 |①---|
口口口口 |--②-|
45
口口口口 |----|
口口①口 |①---|
口口口口 |----|
口口口口 |----|
46
口口口口 |①---|
口口口口 |----|
口②②口 |----|
口①①口 |②---|
47
口口口口 |----|
口①①口 |----|
口口口口 |①---|
口口口口 |----|
48
口口口口 |①---|
口口②① |--②-|
口口③口 |----|
口口口口 |③---|
49
口口口口 |----|
①口口口 |----|
口②口口 |①---|
口口口口 |--②-|
50
口口口口 |----|
口①口口 |①---|
口口口口 |----|
口口口口 |----|
51
口口口口 |①---|
口口口口 |----|
口②②口 |----|
口①①口 |②---|
52
口口口口 |----|
口①①口 |----|
口口口口 |①---|
口口口口 |----|
53
口①①口 |----|
口口口口 |①---|
口口口口 |----|
口口口口 |----|
54
①口口① |①---|
口口口口 |----|
口口口口 |----|
口口口口 |----|
55
口口口口 |----|
口口口口 |----|
口口口口 |①---|
口①①口 |----|
56
口③口口 |①---|
①口口① |②---|
口②口口 |----|
口口口口 |③---|
57
口口②口 |----|
口口口口 |①---|
口口①口 |----|
口口口口 |②---|
58
②②口口 |----|
口口口口 |①---|
①①口口 |----|
口口口口 |②---|
59
口口②② |----|
口口口口 |①---|
口口①① |----|
口口口口 |②---|
60
口①口口 |----|
口口②口 |①---|
口口口口 |----|
口口口口 |②---|
61
口口口口 |----|
口口口口 |①---|
口①口口 |----|
口口②口 |②---|
62
口口口口 |①---|
③②②① |--②-|
③口口① |----|
口口口口 |③---|
63
口口口口 |--①-|
口口口口 |----|
口①①口 |②---|
口②②口 |----|
64
口口③口 |①---|
①口口① |②---|
口口②口 |----|
口口口口 |③---|
65
口②口口 |----|
口口口口 |①---|
口①口口 |----|
口口口口 |②---|
66
口口②② |----|
口口口口 |①---|
口口①① |----|
口口口口 |②---|
67
②②口口 |----|
口口口口 |①---|
①①口口 |----|
口口口口 |②---|
68
④口口① |①---|
口③②口 |②---|
口口口口 |③---|
口口口口 |④---|
69
口口口口 |①---|
①口口④ |②---|
口②③口 |③---|
口口口口 |④---|
70
口①①口 |①---|
口口口口 |----|
口②②口 |②---|
口口口口 |----|
71
①口口① |①---|
口口口口 |----|
②口口② |②---|
口口口口 |----|
72
口①①口 |①---|
口①①口 |----|
口口口口 |----|
口口口口 |----|
73
口口口口 |----|
口口口口 |----|
口口口口 |----|
口口口口 |----|
74
口口口口 |①---|
①③口② |--②-|
①③口② |----|
口口口口 |③---|
75
口口口口 |--①-|
口口①口 |----|
口口①口 |----|
口口口口 |----|
76
口③③口 |①---|
口①①口 |--②-|
口②②口 |----|
口口口口 |③---|
77
口口口口 |----|
口口口口 |①---|
口口口口 |----|
口①①口 |----|
78
口②②口 |①---|
口口口口 |--②-|
口③③口 |----|
口①①口 |③---|
79
②口口② |--①-|
②①①② |----|
口口口口 |②---|
口口口口 |----|
80
口④③口 |①---|
口口②口 |②---|
口口①口 |③---|
口口口口 |④---|
81
口口口口 |①---|
口①口口 |②---|
口②口口 |----|
口口口口 |----|
82
口④③口 |①---|
口②口口 |②---|
口口①口 |③---|
口口口口 |④---|
83
口口口口 |①---|
口口①口 |②---|
口②口口 |----|
口口口口 |----|
84
口④③口 |①---|
口口口② |②---|
口口①口 |③---|
口口口口 |④---|
85
口口口口 |①---|
①口口口 |②---|
口②口口 |----|
口口口口 |----|
86
②口口② |①---|
口①①口 |--(176)②-|
口③③口 |----|
口口口口 |(168)③---|
87
②②②② |--(160)①-|
①口口① |----|
口口口口 |(144)②---|
口口口口 |----|
88
口口口口 |----|
口口口口 |----|
口口口口 |--(136.0004)--|
口口口口 |(128)--(120)--|
89
口口口口 |----|
口口口口 |----|
口口口口 |----|
口口口口 |----|

accuracy: 100%
最終更新:2024年08月11日 08:04